↑↓torrent.by
Поиск
Логин: Регистрация
Пароль: Восстановить пароль

Шуша [01-16 из 16] (2020) WEB-DLRip от Files-x

Скачать shusha-01-16-iz-2020-web-dlrip-ot-files-x.torrent
U Магнитная ссылка Размер: 9.13 GB Раздают: 168 Качают: 269 Добавлен: 2020-11-21 13:50:13
Шуша [01-16 из 16] (2020) WEB-DLRip от Files-x

Оригинальное название: Шуша
Год выхода: 2020
Жанр: Детектив
Режиссер: Александр Будённый
В ролях: Анастасия Панина, Иван Оганесян, Сергей Деньга, Елена Коренева, Александр Данильченко, Вероника Лукьяненко, Даниил Каменский, Ксения Мишина, Даниил Мирешкин, Николай Кий, Сергей Кисель, Елена Оларь, Александр Бегма, Мила Рымарь, Вячеслав Белозоров

О фильме:
Главная героиня – эксперт-криминалист Александра Ладынина, которая живет ради любимой работы и верит только фактам. Шуша считает, что главное в жизни – логика, внимательность, аккуратность и верно просчитанный жизненный алгоритм. В свои 35 лет она не завела семьи и по-прежнему категорически против каких-либо отношений. Девушка убеждена, что они притупляют остроту ума, внимательность и вообще отвлекают. Шуша живет своей работой и любому романтическому свиданию предпочтет прогулку по месту преступления...

Страна: Украина
Студия: Кинокомпания "Starmedia", по заказу телеконала Россия-1 и ТРК Украина
Продолжительность: 16 х 00:45:00
Перевод: Не требуется

Файл
Кодек: XviD
Качество: WEB-DLRip
Видео: XviD, ~ 1620 Кбит/с, 720x400, 25 кадр/с
Звук: AC3, 2 ch, 192 Кбит/с

Релиз:
[+] MediaInfo

General
Complete name                    : C:01.Шуша.s01.E01.(2020).WEB-DLRip.by.Nicodem.Files-x.avi
Format                           : AVI
Format/Info                      : Audio Video Interleave
File size                        : 580 MiB
Duration                         : 44mn 31s
Overall bit rate                 : 1 822 Kbps
Writing application              : VirtualDubMod 1.5.10.3 | www.virtualdub-fr.org || (build 2550/release)
Writing library                  : VirtualDubMod build 2550/release

Video
ID                               : 0
Format                           : MPEG-4 Visual
Format profile                   : Advanced Simple@L5
Format settings, BVOP            : 1
Format settings, QPel            : No
Format settings, GMC             : No warppoints
Format settings, Matrix          : Custom
Codec ID                         : XVID
Codec ID/Hint                    : XviD
Duration                         : 44mn 31s
Bit rate                         : 1 620 Kbps
Width                            : 720 pixels
Height                           : 400 pixels
Display aspect ratio             : 16:9
Frame rate                       : 25.000 fps
Color space                      : YUV
Chroma subsampling               : 4:2:0
Bit depth                        : 8 bits
Scan type                        : Progressive
Compression mode                 : Lossy
Bits/(Pixel*Frame)               : 0.225
Stream size                      : 516 MiB (89%)
Writing library                  : XviD 73

Audio
ID                               : 1
Format                           : AC-3
Format/Info                      : Audio Coding 3
Mode extension                   : CM (complete main)
Codec ID                         : 2000
Duration                         : 44mn 31s
Bit rate mode                    : Constant
Bit rate                         : 192 Kbps
Channel(s)                       : 2 channels
Channel positions                : Front: L R
Sampling rate                    : 48.0 KHz
Bit depth                        : 16 bits
Compression mode                 : Lossy
Stream size                      : 61.2 MiB (11%)
Alignment                        : Split accross interleaves
Interleave, duration             : 40 ms (1.00 video frame)
Interleave, preload duration     : 500 ms



Скриншоты:
[+] Всего файлов в раздаче - 16:
10.Шуша.s01.E10.(2020).WEB-DLRip.by.Nicodem.Files-x.avi580.03 MB
13.Шуша.s01.E13.(2020).WEB-DLRip.by.Nicodem.Files-x.avi580.04 MB
16.Шуша.s01.E16.(2020).WEB-DLRip.by.Nicodem.Files-x.avi580.07 MB
04.Шуша.s01.E04.(2020).WEB-DLRip.by.Nicodem.Files-x.avi580.07 MB
12.Шуша.s01.E12.(2020).WEB-DLRip.by.Nicodem.Files-x.avi580.16 MB
08.Шуша.s01.E08.(2020).WEB-DLRip.by.Nicodem.Files-x.avi580.19 MB
07.Шуша.s01.E07.(2020).WEB-DLRip.by.Nicodem.Files-x.avi580.20 MB
09.Шуша.s01.E09.(2020).WEB-DLRip.by.Nicodem.Files-x.avi580.26 MB
01.Шуша.s01.E01.(2020).WEB-DLRip.by.Nicodem.Files-x.avi580.35 MB
06.Шуша.s01.E06.(2020).WEB-DLRip.by.Nicodem.Files-x.avi590.01 MB
02.Шуша.s01.E02.(2020).WEB-DLRip.by.Nicodem.Files-x.avi590.06 MB
05.Шуша.s01.E05.(2020).WEB-DLRip.by.Nicodem.Files-x.avi590.14 MB
15.Шуша.s01.E15.(2020).WEB-DLRip.by.Nicodem.Files-x.avi590.14 MB
11.Шуша.s01.E11.(2020).WEB-DLRip.by.Nicodem.Files-x.avi590.23 MB
14.Шуша.s01.E14.(2020).WEB-DLRip.by.Nicodem.Files-x.avi590.29 MB
03.Шуша.s01.E03.(2020).WEB-DLRip.by.Nicodem.Files-x.avi590.33 MB

Похожие раздачи по запросу - шуша:
2020-11-22 U Шуша [01-16 из 16] (2020) WEB-DL 1080p от Files-x 26.01 GB ↑ 56 ↓ 80
2020-11-21 U Шуша [01-16 из 16] (2020) WEB-DLRip-AVC от Files-х 9.03 GB ↑ 70 ↓ 43
2020-11-19 U Шуша [01-10 из 16] (2020) WEB-DLRip-AVC от Files-х 5.64 GB ↑ 86 ↓ 106
2020-11-14 U Шуша [01-08 из 16] (2020) WEB-DLRip от Files-x 4.57 GB ↑ 93 ↓ 81

Отзывы
Зарегистрируйтесь чтобы добавить комментарий.
Загрузите программу
  uTorrent.exe
Обратная связь
Copyleft ©