↑↓torrent.by
Поиск
Логин: Регистрация
Пароль: Восстановить пароль

Телохранитель бабушки / Lucky Grandma (2019) HDRip-AVC от MediaBit | iTunes

Скачать telohranitel-babushki-lucky-grandma-2019-hdrip-avc-ot-mediabit-itunes.torrent
U Магнитная ссылка Размер: 1.45 GB Раздают: 113 Качают: 24 Добавлен: 2020-11-21 13:50:42
Телохранитель бабушки / Lucky Grandma (2019) HDRip-AVC от MediaBit | iTunes

Телохранитель бабушки / Lucky Grandma

Название:  Телохранитель бабушки
Оригинальное название:  Lucky Grandma
Год выхода: 2019
Жанр: Драма, комедия, криминал
Режиссер:  Сеси Сили
В ролях:   Цай Чинь, Ха Сяоюань, Майкл Тоу, Вуди Фу, Янь Си, Вай Чин Хо, Клем Чун, Эдди Юй, Мэйсон Ям, Лиман Чен

Описание:   Где-то в Нью-Йорке гадалка предсказала бабушке большую удачу. Никогда не поздно начать жить в свое удовольствие. Бабушка сняла все деньги со счета и отправилась в казино. Сорвать огромный куш в казино? Да легко! Нанять телохранителя? Не проблема! Черпая вдохновение из остросюжетных телесериалов, бабушка оказывается в эпицентре настоящих бандитских разборок. Теперь несладко будет всем!

Страна:  США
Студия:  Parris Pictures, Treehead Films
Продолжительность:  01:27:38
Перевод:  Профессиональный (многоголосый, закадровый) - iTunes

Кодек: AVC
Формат: MKV
Качество: HDRip-AVC
Видео: MPEG-4 AVC, 1024x552 (1.85:1), 23.976 fps, 1986 kbps,  0.147
Аудио RU:  AC3, 6 ch, 48 kHz, 384 kbps  
Субтитры: Английские
Навигация по главам:  Да

Релиз: &  &


[+] MediaInfo
x264 info: frame I:884   Avg QP:13.78  size: 80845 [url=/tag/1/][/url]
x264 info: frame P:23845 Avg QP:16.94  size: 23164 [url=/tag/1/][/url]
x264 info: frame B:101355 Avg QP:18.65  size:  6722 [url=/tag/1/][/url]
General [url=/tag/1/][/url]
Unique ID                                : 306966461114087486507338950892704645105 (0xE6EF970630F209839650C50DF1C23FF1) [url=/tag/1/][/url]
Complete name                            : D:uTorrentРипы_от_wolf1245_MediaBitLucky Grandma 2019 HDRip-AVC from wolf1245 & MediaBit.mkv [url=/tag/1/][/url]
Format                                   : Matroska [url=/tag/1/][/url]
Format version                           : Version 4 [url=/tag/1/][/url]
File size                                : 1.45 GiB [url=/tag/1/][/url]
Duration                                 : 1 h 27 min [url=/tag/1/][/url]
Overall bit rate                         : 2 371 kb/s [url=/tag/1/][/url]
Movie name                               : Lucky Grandma 2019 HDRip-AVC from wolf1245 & MediaBit [url=/tag/1/][/url]
Encoded date                             : UTC 2020-11-20 20:29:40 [url=/tag/1/][/url]
Writing application                      : mkvmerge v51.0.0 ('I Wish') 64-bit [url=/tag/1/][/url]
Writing library                          : libebml v1.4.0 + libmatroska v1.6.2 [url=/tag/1/][/url]
[url=/tag/1/][/url]
Video [url=/tag/1/][/url]
ID                                       : 1 [url=/tag/1/][/url]
Format                                   : AVC [url=/tag/1/][/url]
Format/Info                              : Advanced Video Codec [url=/tag/1/][/url]
Format profile                           : High@L4.1 [url=/tag/1/][/url]
Format settings                          : CABAC / 12 Ref Frames [url=/tag/1/][/url]
Format settings, CABAC                   : Yes [url=/tag/1/][/url]
Format settings, Reference frames        : 12 frames [url=/tag/1/][/url]
Codec ID                                 : V_MPEG4/ISO/AVC [url=/tag/1/][/url]
Duration                                 : 1 h 27 min [url=/tag/1/][/url]
Bit rate                                 : 1 986 kb/s [url=/tag/1/][/url]
Width                                    : 1 024 pixels [url=/tag/1/][/url]
Height                                   : 552 pixels [url=/tag/1/][/url]
Display aspect ratio                     : 1.85:1 [url=/tag/1/][/url]
Frame rate mode                          : Constant [url=/tag/1/][/url]
Frame rate                               : 23.976 (24000/1001) FPS [url=/tag/1/][/url]
Color space                              : YUV [url=/tag/1/][/url]
Chroma subsampling                       : 4:2:0 [url=/tag/1/][/url]
Bit depth                                : 8 bits [url=/tag/1/][/url]
Scan type                                : Progressive [url=/tag/1/][/url]
Bits/(Pixel*Frame)                       : 0.147 [url=/tag/1/][/url]
Stream size                              : 1.22 GiB (84%) [url=/tag/1/][/url]
Title                                    : wolf1245 & MediaBit [url=/tag/1/][/url]
Writing library                          : x264 core 157 r2958 57baac4 [url=/tag/1/][/url]
Encoding settings                        : cabac=1 / ref=12 / deblock=1:-3:-3 / analyse=0x3:0x133 / me=umh / subme=11 / psy=1 / psy_rd=1.03:0.03 / mixed_ref=1 / me_range=48 / chroma_me=1 / trellis=2 / 8x8dct=1 / cqm=0 / deadzone=21,11 / fast_pskip=0 / chroma_qp_offset=-3 / threads=10 / lookahead_threads=2 / sliced_threads=0 / nr=0 / decimate=0 / interlaced=0 / bluray_compat=0 / constrained_intra=0 / bframes=12 / b_pyramid=2 / b_adapt=2 / b_bias=0 / direct=3 / weightb=1 / open_gop=0 / weightp=2 / keyint=240 / keyint_min=24 / scenecut=40 / intra_refresh=0 / rc_lookahead=100 / rc=2pass / mbtree=0 / bitrate=1986 / ratetol=1.0 / qcomp=0.60 / qpmin=0 / qpmax=69 / qpstep=4 / cplxblur=20.0 / qblur=0.5 / vbv_maxrate=50000 / vbv_bufsize=62500 / nal_hrd=none / filler=0 / ip_ratio=1.40 / pb_ratio=1.30 / aq=2:0.80 [url=/tag/1/][/url]
Language                                 : Chinese [url=/tag/1/][/url]
Default                                  : Yes [url=/tag/1/][/url]
Forced                                   : No [url=/tag/1/][/url]
Color range                              : Limited [url=/tag/1/][/url]
Color primaries                          : BT.709 [url=/tag/1/][/url]
Transfer characteristics                 : BT.709 [url=/tag/1/][/url]
Matrix coefficients                      : BT.709 [url=/tag/1/][/url]
[url=/tag/1/][/url]
Audio [url=/tag/1/][/url]
ID                                       : 2 [url=/tag/1/][/url]
Format                                   : AC-3 [url=/tag/1/][/url]
Format/Info                              : Audio Coding 3 [url=/tag/1/][/url]
Commercial name                          : Dolby Digital [url=/tag/1/][/url]
Codec ID                                 : A_AC3 [url=/tag/1/][/url]
Duration                                 : 1 h 27 min [url=/tag/1/][/url]
Bit rate mode                            : Constant [url=/tag/1/][/url]
Bit rate                                 : 384 kb/s [url=/tag/1/][/url]
Channel(s)                               : 6 channels [url=/tag/1/][/url]
Channel layout                           : L R C LFE Ls Rs [url=/tag/1/][/url]
Sampling rate                            : 48.0 kHz [url=/tag/1/][/url]
Frame rate                               : 31.250 FPS (1536 SPF) [url=/tag/1/][/url]
Compression mode                         : Lossy [url=/tag/1/][/url]
Stream size                              : 241 MiB (16%) [url=/tag/1/][/url]
Title                                    : MVO | iTunes [url=/tag/1/][/url]
Language                                 : Russian [url=/tag/1/][/url]
Service kind                             : Complete Main [url=/tag/1/][/url]
Default                                  : Yes [url=/tag/1/][/url]
Forced                                   : No [url=/tag/1/][/url]
[url=/tag/1/][/url]
Text [url=/tag/1/][/url]
ID                                       : 3 [url=/tag/1/][/url]
Format                                   : UTF-8 [url=/tag/1/][/url]
Codec ID                                 : S_TEXT/UTF8 [url=/tag/1/][/url]
Codec ID/Info                            : UTF-8 Plain Text [url=/tag/1/][/url]
Duration                                 : 1 h 19 min [url=/tag/1/][/url]
Bit rate                                 : 27 b/s [url=/tag/1/][/url]
Count of elements                        : 670 [url=/tag/1/][/url]
Stream size                              : 16.1 KiB (0%) [url=/tag/1/][/url]
Title                                    : Full [url=/tag/1/][/url]
Language                                 : English [url=/tag/1/][/url]
Default                                  : No [url=/tag/1/][/url]
Forced                                   : No [url=/tag/1/][/url]
[url=/tag/1/][/url]
Menu [url=/tag/1/][/url]
00:00:00.000                             : :00:00:00.000 [url=/tag/1/][/url]
00:02:57.427                             : :00:02:57.427 [url=/tag/1/][/url]
00:14:36.375                             : :00:14:36.375 [url=/tag/1/][/url]
00:25:17.391                             : :00:25:17.391 [url=/tag/1/][/url]
00:38:29.224                             : :00:38:29.224 [url=/tag/1/][/url]
00:49:28.799                             : :00:49:28.799 [url=/tag/1/][/url]
00:59:11.381                             : :00:59:11.381 [url=/tag/1/][/url]
01:08:38.823                             : :01:08:38.823 [url=/tag/1/][/url]
01:15:52.798                             : :01:15:52.798 [url=/tag/1/][/url]
01:21:49.530                             : :01:21:49.530 [url=/tag/1/][/url]
[url=/tag/1/][/url]



Скриншоты:
[+] Всего файлов в раздаче - 1:
Lucky Grandma 2019 HDRip-AVC from wolf1245 & MediaBit.mkv1.45 GB

Похожие раздачи по запросу - телохранитель:
2020-11-21 U Телохранитель бабушки / Lucky Grandma (2019) BDRip от Twister & ExKinoRay | iTunes 1.42 GB ↑ 59 ↓ 13
2020-11-20 U Телохранитель бабушки / Lucky Grandma (2019) BDRip 1080p от селезень | iTunes 7.30 GB ↑ 45 ↓ 57
2020-11-20 U Телохранитель бабушки / Lucky Grandma (2019) BDRip 720p от селезень | iTunes 4.30 GB ↑ 41 ↓ 64
2020-11-07 U Телохранитель / Bodyguard [S01] (2018) HDRip | LostFilm 5.07 GB ↑ 18 ↓ 10

Отзывы
Зарегистрируйтесь чтобы добавить комментарий.
Загрузите программу
  uTorrent.exe
Обратная связь
Copyleft ©