↑↓torrent.by
Поиск
Логин: Регистрация
Пароль: Восстановить пароль

Новые мутанты / Люди Икс: Новые мутанты / The New Mutants (2020) BDRip-HEVC 1080p от HEVC-CLUB | iTunes

Скачать novye-mutanty-lyudi-iks-the-new-mutants-2020-bdrip-hevc-1080p-ot-club-itunes.torrent
U Магнитная ссылка Размер: 5.29 GB Раздают: 109 Качают: 56 Добавлен: 2020-11-21 13:51:18
Новые мутанты / Люди Икс: Новые мутанты / The New Mutants (2020) BDRip-HEVC 1080p от HEVC-CLUB | iTunes

Год выхода:  2020
Страна / Студия: США / 20th Century Studios, Marvel Entertainment, TSG Entertainment
Жанр:  Ужасы, фантастика, боевик
Продолжительность: 01:34:03
Перевод: Дублированный

Режиссер: Джош Бун
В ролях: Блю Хант, Алиси Брага, Мэйси Уильямс, Аня Тейлор-Джой, Чарли Хитон, Генри Зага, Адам Бич, Томас Ки, Колби Ганнетт, Хэппи Андерсон

Описание: После нашествия на её резервацию загадочного торнадо и гибели отца Дэниель Мунстар приходит в себя связанной на больничной койке. Доктор Рейес сообщает девушке, что она - единственная выжившая, и теперь вместе с четырьмя подростками находится в специализированном учреждении, где их изучают и учат контролировать свои сверхспособности. Вскоре Дэни выясняет, что покинуть огороженную силовым полем территорию невозможно, а ребят начинают преследовать кажущиеся очень реальными кошмары.

Качество: BDRip 1080p
Видео: HEVC/H.265, 1920x1036, ~7018 Kbps
Аудио 1: AC3, 6 ch, 384 Kbps - Русский, дублированный (iTunes)
Аудио 2: AC3, 6 ch, 640 Kbps - Английский
Субтитры: Русские, английские (полные, SDH)

Релиз:


[+] Mediainfo

==============================
x265 info: frame I: 1227, Avg QP:14.19 kb/s: 27677.09
x265 info: frame P: 23635, Avg QP:15.44 kb/s: 14121.38
x265 info: frame B: 110456, Avg QP:17.56 kb/s: 5267.53
==============================
General
Unique ID : 19480711605352193871695989631141061894 (0xEA7D93CA95C1A54224363828F60A506)
Complete name : D:ТоррентThe New Mutants 2020.BDRip.1080p.HEVC.DUB.10bit.mikos.mkv
Format : Matroska
Format version : Version 4
File size : 5.29 GiB
Duration : 1 h 34 min
Overall bit rate : 8 044 kb/s
Movie name : The New Mutants 2020.BDRip.1080p.HEVC.DUB.10bit.mikos
Encoded date : UTC 2020-11-21 06:11:18
Writing application : mkvmerge v51.0.0 ('I Wish') 64-bit
Writing library : libebml v1.4.0 + libmatroska v1.6.2

Video
ID : 1
Format : HEVC
Format/Info : High Efficiency Video Coding
Format profile : Main 10@L4.1@High
Codec ID : V_MPEGH/ISO/HEVC
Duration : 1 h 34 min
Bit rate : 7 018 kb/s
Width : 1 920 pixels
Height : 1 036 pixels
Display aspect ratio : 1.85:1
Frame rate mode : Constant
Frame rate : 23.976 (24000/1001) FPS
Color space : YUV
Chroma subsampling : 4:2:0
Bit depth : 10 bits
Bits/(Pixel*Frame) : 0.147
Stream size : 4.61 GiB (87%)
Title : Rip by mikos
Writing library : x265 3.4+27-g241342f25:[Windows][clang 10.0.1][64 bit] 10bit
Encoding settings : cpuid=1111039 / frame-threads=3 / numa-pools=12 / wpp / no-pmode / no-pme / no-psnr / no-ssim / log-level=3 / input-csp=1 / input-res=1920x1036 / interlace=0 / total-frames=0 / level-idc=41 / high-tier=1 / uhd-bd=0 / ref=4 / allow-non-conformance / no-repeat-headers / annexb / no-aud / no-hrd / info / hash=0 / no-temporal-layers / open-gop / min-keyint=23 / keyint=250 / gop-lookahead=0 / bframes=14 / b-adapt=2 / b-pyramid / bframe-bias=0 / rc-lookahead=60 / lookahead-slices=6 / scenecut=40 / hist-scenecut=0 / radl=0 / no-splice / no-intra-refresh / ctu=32 / min-cu-size=8 / no-rect / no-amp / max-tu-size=32 / tu-inter-depth=4 / tu-intra-depth=4 / limit-tu=1 / rdoq-level=2 / dynamic-rd=0.00 / no-ssim-rd / signhide / no-tskip / nr-intra=0 / nr-inter=0 / no-constrained-intra / strong-intra-smoothing / max-merge=5 / limit-refs=3 / no-limit-modes / me=3 / subme=7 / merange=57 / temporal-mvp / no-frame-dup / no-hme / weightp / no-weightb / no-analyze-src-pics / deblock=-3:-3 / no-sao / no-sao-non-deblock / rd=4 / selective-sao=0 / early-skip / rskip / no-fast-intra / no-tskip-fast / no-cu-lossless / b-intra / no-splitrd-skip / rdpenalty=0 / psy-rd=1.95 / psy-rdoq=0.95 / no-rd-refine / no-lossless / cbqpoffs=0 / crqpoffs=0 / rc=crf / crf=18.3 / qcomp=0.65 / qpstep=4 / stats-write=0 / stats-read=0 / vbv-maxrate=50000 / vbv-bufsize=50000 / vbv-init=0.9 / min-vbv-fullness=50.0 / max-vbv-fullness=80.0 / crf-max=30.0 / crf-min=0.0 / ipratio=1.40 / pbratio=1.30 / aq-mode=2 / aq-strength=1.00 / no-cutree / zone-count=0 / no-strict-cbr / qg-size=32 / no-rc-grain / qpmax=69 / qpmin=0 / no-const-vbv / sar=1 / overscan=0 / videoformat=5 / range=0 / colorprim=2 / transfer=2 / colormatrix=2 / chromaloc=0 / display-window=0 / cll=0,0 / min-luma=0 / max-luma=1023 / log2-max-poc-lsb=8 / vui-timing-info / vui-hrd-info / slices=1 / no-opt-qp-pps / no-opt-ref-list-length-pps / no-multi-pass-opt-rps / scenecut-bias=0.05 / hist-threshold=0.03 / no-opt-cu-delta-qp / no-aq-motion / no-hdr10 / no-hdr10-opt / no-dhdr10-opt / no-idr-recovery-sei / analysis-reuse-level=0 / analysis-save-reuse-level=0 / analysis-load-reuse-level=0 / scale-factor=0 / refine-intra=0 / refine-inter=0 / refine-mv=1 / refine-ctu-distortion=0 / no-limit-sao / ctu-info=0 / no-lowpass-dct / refine-analysis-type=0 / copy-pic=1 / max-ausize-factor=1.0 / no-dynamic-refine / no-single-sei / no-hevc-aq / no-svt / no-field / qp-adaptation-range=1.00 / no-scenecut-aware-qpconformance-window-offsets / right=0 / bottom=0 / decoder-max-rate=0 / no-vbv-live-multi-pass
Language : English
Default : Yes
Forced : No
Color range : Limited

Audio #1
ID : 2
Format : AC-3
Format/Info : Audio Coding 3
Commercial name : Dolby Digital
Codec ID : A_AC3
Duration : 1 h 34 min
Bit rate mode : Constant
Bit rate : 384 kb/s
Channel(s) : 6 channels
Channel layout : L R C LFE Ls Rs
Sampling rate : 48.0 kHz
Frame rate : 31.250 FPS (1536 SPF)
Compression mode : Lossy
Stream size : 258 MiB (5%)
Title : iTunes
Language : Russian
Service kind : Complete Main
Default : Yes
Forced : No

Audio #2
ID : 3
Format : AC-3
Format/Info : Audio Coding 3
Commercial name : Dolby Digital
Codec ID : A_AC3
Duration : 1 h 34 min
Bit rate mode : Constant
Bit rate : 640 kb/s
Channel(s) : 6 channels
Channel layout : L R C LFE Ls Rs
Sampling rate : 48.0 kHz
Frame rate : 31.250 FPS (1536 SPF)
Compression mode : Lossy
Stream size : 431 MiB (8%)
Title : Original
Language : English
Service kind : Complete Main
Default : No
Forced : No

Text #1
ID : 4
Format : UTF-8
Codec ID : S_TEXT/UTF8
Codec ID/Info : UTF-8 Plain Text
Duration : 1 h 26 min
Bit rate : 68 b/s
Count of elements : 993
Stream size : 43.3 KiB (0%)
Title : Full
Language : Russian
Default : No
Forced : No

Text #2
ID : 5
Format : UTF-8
Codec ID : S_TEXT/UTF8
Codec ID/Info : UTF-8 Plain Text
Duration : 1 h 26 min
Bit rate : 39 b/s
Count of elements : 1031
Stream size : 25.1 KiB (0%)
Title : Full
Language : English
Default : Yes
Forced : No

Text #3
ID : 6
Format : UTF-8
Codec ID : S_TEXT/UTF8
Codec ID/Info : UTF-8 Plain Text
Duration : 1 h 26 min
Bit rate : 50 b/s
Count of elements : 1343
Stream size : 32.1 KiB (0%)
Title : SDH
Language : English
Default : No
Forced : No

Menu
00:00:00.000 : :Chapter 01
00:02:39.951 : :Chapter 02
00:08:07.737 : :Chapter 03
00:10:53.862 : :Chapter 04
00:14:33.039 : :Chapter 05
00:17:23.917 : :Chapter 06
00:19:53.067 : :Chapter 07
00:23:41.879 : :Chapter 08
00:27:54.590 : :Chapter 09
00:30:30.078 : :Chapter 10
00:33:26.588 : :Chapter 11
00:39:36.791 : :Chapter 12
00:43:12.965 : :Chapter 13
00:47:53.287 : :Chapter 14
00:50:35.157 : :Chapter 15
00:52:12.254 : :Chapter 16
00:55:28.825 : :Chapter 17
00:57:13.055 : :Chapter 18
01:00:17.113 : :Chapter 19
01:02:37.754 : :Chapter 20
01:06:36.367 : :Chapter 21
01:11:12.100 : :Chapter 22
01:13:44.462 : :Chapter 23
01:15:07.878 : :Chapter 24
01:18:57.107 : :Chapter 25
01:21:52.366 : :Chapter 26
01:24:32.276 : :Chapter 27
01:26:46.201 : :Chapter 28



Скриншоты:
[+] Всего файлов в раздаче - 1:
The New Mutants 2020.BDRip.1080p.HEVC.DUB.10bit.mikos.mkv5.29 GB

Показать еще раздачи по запросу новые:
2020-11-20 U Новые мутанты / Люди Икс: Новые мутанты / The New Mutants (2020) UHD BDRip-HEVC 2160p | 4K | HDR | iTunes 17.10 GB ↑ 63 ↓ 35
2020-11-20 U Новые мутанты / Люди Икс: Новые мутанты / The New Mutants (2020) BDRip-AVC | iTunes 1.93 GB ↑ 50 ↓ 22
2020-11-19 U Новые мутанты / Люди Икс: Новые мутанты / The New Mutants (2020) HDRip | iTunes 746.22 MB ↑ 70 ↓ 47
2020-11-19 U Новые мутанты / Люди Икс: Новые мутанты / The New Mutants (2020) BDRip-AVC от ExKinoRay | iTunes 743.49 MB ↑ 61 ↓ 48
2020-11-19 U Новые мутанты / Люди Икс: Новые мутанты / The New Mutants (2020) BDRip-AVC от ExKinoRay | iTunes 1.41 GB ↑ 121 ↓ 21
2020-11-19 U Новые мутанты / Люди Икс: Новые мутанты / The New Mutants (2020) BDRip от MegaPeer | iTunes 1.46 GB ↑ 72 ↓ 34
2020-11-19 U Новые мутанты / Люди Икс: Новые мутанты / The New Mutants (2020) BDRemux 1080p от селезень | iTunes 23.12 GB ↑ 55 ↓ 42

Отзывы
Зарегистрируйтесь чтобы добавить комментарий.
Загрузите программу
  uTorrent.exe
Обратная связь
Copyleft ©