↑↓torrent.by
Поиск
Логин: Регистрация
Пароль: Восстановить пароль

Мандалорец / The Mandalorian [02x01-04 из 08] (2020) WEBRip 1080p | AlexFilm

Скачать mandalorec-the-mandalorian-02x01-04-iz-08-2020-webrip-1080p-alexfilm.torrent
U Магнитная ссылка Размер: 16.49 GB Раздают: 113 Качают: 773 Добавлен: 2020-11-21 17:41:57
Мандалорец / The Mandalorian [02x01-04 из 08] (2020) WEBRip 1080p | AlexFilm

Информация о сериале
Название: Мандалорец
Оригинальное название: The Mandalorian
Год выхода: 2020
Жанр: Фантастика, боевик, приключения
Режиссёр: Дэйв Филони, Дебора Чоу, Рик Фамуйива
В ролях: Педро Паскаль, Кайл Пацек, Брендан Уэйн, Бернард Баллен, Александра Гилман, Луис Ричард Гомес, Джамал Антар, Тейт Флетчер, Тони Табоада, Омид Абтахи и др.

Описание:
Одинокий мандалорец-наёмник живёт на краю обитаемой галактики, куда не дотягивается закон Новой Республики. Представитель некогда могучей расы благородных воинов теперь вынужден влачить жалкое существование среди отбросов общества.

Страна: США
Студия: Disney+
Продолжительность: ~00:45:00
Перевод: Профессиональный (многоголосый закадровый) | AlexFilm

Файл
Кодек: AVC
Качество: WEBRip 1080p
Видео: 1920x1080 (16:9)*, 23.976 fps, ~13 Mbps
Аудио №1:  AC3, 48,0 kHz, 6 ch, 384 kbps | AlexFilm
Аудио №2:  AC3, 48,0 kHz, 6 ch, 640 kbps | Original
Аудио №3:  EAC3 JOC, 48,0 kHz, 6 ch, 768 kbps | Original
Субтитры: Русские (Forced, Full |«PhysKids»|, английские (Full, SDH)
* разрешение видео с третьей серии 1920x808 (2.40:1)!

Реклама: Отсутствует
Исходник: The.Mandalorian.S02.1080p.WEBRip.DDP5.1.Atmos.x264-MZABI


[+] Список серий:
01. Chapter 9: The Marshal / Глава 9: Маршал
02. Chapter 10: The Passenger / Глава 10: Пассажир
03. Chapter 11: The Heiress / Глава 11: Наследница
04. Chapter 12: The Siege / Глава 12: Осада



[+] MediaInfo:
Complete name               : D:ShowsThe_Mandalorian_(s02)_1080pThe.Mandalorian.2020.S02E01.Chapter.9.The.Marshal.1080p.WEBRip.DDP5.1.Atmos.x264-MZABI_EniaHD.mkv
Format                      : Matroska
Format version              : Version 4
File size                   : 5.26 GiB
Duration                    : 51 min 51 s
Overall bit rate            : 14.5 Mb/s
Encoded date                : UTC 2020-11-13 18:59:21
Writing application         : mkvmerge v31.0.0 ('Dolores In A Shoestand') 64-bit
Writing library             : libebml v1.3.6 + libmatroska v1.4.9

Video
ID                          : 1
Format                      : AVC
Format/Info                 : Advanced Video Codec
Format profile              : High@L4.1
Format settings             : CABAC / 5 Ref Frames
Format settings, CABAC      : Yes
Format settings, Reference  : 5 frames
Codec ID                    : V_MPEG4/ISO/AVC
Duration                    : 51 min 51 s
Bit rate                    : 12.7 Mb/s
Width                       : 1 920 pixels
Height                      : 1 080 pixels
Display aspect ratio        : 16:9
Frame rate mode             : Constant
Frame rate                  : 23.976 (24000/1001) FPS
Color space                 : YUV
Chroma subsampling          : 4:2:0
Bit depth                   : 8 bits
Scan type                   : Progressive
Bits/(Pixel*Frame)          : 0.256
Stream size                 : 4.61 GiB (88%)
Title                       : Release by EniaHD
Writing library             : x264 core 160 r3000 33f9e14
Encoding settings           : cabac=1 / ref=5 / deblock=1:-3:-3 / analyse=0x3:0x133 / me=umh / subme=10 / psy=1 / psy_rd=1.00:0.00 / mixed_ref=1 / me_range=32 / chroma_me=1 / trellis=2 / 8x8dct=1 / cqm=0 / deadzone=21,11 / fast_pskip=0 / chroma_qp_offset=-2 / threads=34 / lookahead_threads=5 / sliced_threads=0 / nr=0 / decimate=0 / interlaced=0 / bluray_compat=0 / constrained_intra=0 / bframes=8 / b_pyramid=2 / b_adapt=2 / b_bias=0 / direct=3 / weightb=1 / open_gop=0 / weightp=2 / keyint=250 / keyint_min=23 / scenecut=40 / intra_refresh=0 / rc=crf / mbtree=0 / crf=14.5 / qcomp=0.60 / qpmin=0 / qpmax=69 / qpstep=4 / ip_ratio=1.30 / pb_ratio=1.20 / aq=3:0.80
Default                     : Yes
Forced                      : No

Audio #1
ID                          : 2
Format                      : AC-3
Format/Info                 : Audio Coding 3
Commercial name             : Dolby Digital
Codec ID                    : A_AC3
Duration                    : 51 min 51 s
Bit rate mode               : Constant
Bit rate                    : 384 kb/s
Channel(s)                  : 6 channels
Channel layout              : L R C LFE Ls Rs
Sampling rate               : 48.0 kHz
Frame rate                  : 31.250 FPS (1536 SPF)
Compression mode            : Lossy
Stream size                 : 142 MiB (3%)
Title                       : AlexFilm
Language                    : Russian
Service kind                : Complete Main
Default                     : Yes
Forced                      : No

Audio #2
ID                          : 3
Format                      : AC-3
Format/Info                 : Audio Coding 3
Commercial name             : Dolby Digital
Codec ID                    : A_AC3
Duration                    : 51 min 51 s
Bit rate mode               : Constant
Bit rate                    : 640 kb/s
Channel(s)                  : 6 channels
Channel layout              : L R C LFE Ls Rs
Sampling rate               : 48.0 kHz
Frame rate                  : 31.250 FPS (1536 SPF)
Compression mode            : Lossy
Stream size                 : 237 MiB (4%)
Language                    : English
Service kind                : Complete Main
Default                     : No
Forced                      : No

Audio #3
ID                          : 4
Format                      : E-AC-3 JOC
Format/Info                 : Enhanced AC-3 with Joint Object Coding
Commercial name             : Dolby Digital Plus with Dolby Atmos
Codec ID                    : A_EAC3
Duration                    : 51 min 51 s
Bit rate mode               : Constant
Bit rate                    : 768 kb/s
Channel(s)                  : 6 channels
Channel layout              : L R C LFE Ls Rs
Sampling rate               : 48.0 kHz
Frame rate                  : 31.250 FPS (1536 SPF)
Compression mode            : Lossy
Stream size                 : 285 MiB (5%)
Language                    : English
Service kind                : Complete Main
Default                     : No
Forced                      : No
Complexity index            : 16
Number of dynamic objects   : 15
Bed channel count           : 1 channel
Bed channel configuration   : LFE

Text #1
ID                          : 5
Format                      : UTF-8
Codec ID                    : S_TEXT/UTF8
Codec ID/Info               : UTF-8 Plain Text
Duration                    : 4 s 600 ms
Bit rate                    : 46 b/s
Count of elements           : 1
Stream size                 : 27.0 Bytes (0%)
Title                       : Forced |AF|
Language                    : Russian
Default                     : Yes
Forced                      : No

Text #2
ID                          : 6
Format                      : UTF-8
Codec ID                    : S_TEXT/UTF8
Codec ID/Info               : UTF-8 Plain Text
Duration                    : 48 min 19 s
Bit rate                    : 51 b/s
Count of elements           : 346
Stream size                 : 18.3 KiB (0%)
Title                       : Full |PhysKids|
Language                    : Russian
Default                     : No
Forced                      : No

Text #3
ID                          : 7
Format                      : UTF-8
Codec ID                    : S_TEXT/UTF8
Codec ID/Info               : UTF-8 Plain Text
Duration                    : 48 min 13 s
Bit rate                    : 36 b/s
Count of elements           : 349
Stream size                 : 12.8 KiB (0%)
Title                       : Full
Language                    : English
Default                     : No
Forced                      : No

Text #4
ID                          : 8
Format                      : UTF-8
Codec ID                    : S_TEXT/UTF8
Codec ID/Info               : UTF-8 Plain Text
Duration                    : 48 min 25 s
Bit rate                    : 43 b/s
Count of elements           : 481
Stream size                 : 15.4 KiB (0%)
Title                       : SDH
Language                    : English
Default                     : No
Forced                      : No



Скриншоты:
[+] Всего файлов в раздаче - 4:
The.Mandalorian.2020.S02E01.Chapter.9.The.Marshal.1080p.WEBRip.DDP5.1.Atmos.x264-MZABI_EniaHD.mkv5.26 GB
The.Mandalorian.2020.S02E02.Chapter.10.The.Passenger.1080p.WEBRip.DDP5.1.Atmos.x264-MZABI_EniaHD.mkv3.99 GB
The.Mandalorian.2020.S02E03.Chapter.11.The.Heiress.1080p.WEBRip.DDP5.1.Atmos.x264-MZABI_EniaHD.mkv3.46 GB
The.Mandalorian.2020.S02E04.Chapter.12.The.Siege.1080p.WEBRip.DDP5.1.Atmos.x264-MZABI_EniaHD.mkv3.78 GB

Показать еще раздачи по запросу мандалорец:
Вчера U Мандалорец / The Mandalorian [02x01-04 из 08] (2020) WEB-DL 720p | LostFilm 7.02 GB ↑ 43 ↓ 119
Вчера U Мандалорец / The Mandalorian [02x01-04 из 08] (2020) WEB-DL 1080p | LostFilm 13.05 GB ↑ 67 ↓ 233
2020-11-22 U Мандалорец / The Mandalorian [02x01-04 из 08] (2020) WEB-DLRip 720p | IdeaFilm 4.90 GB ↑ 30 ↓ 43
2020-11-22 U Мандалорец / The Mandalorian [02x01-04 из 08] (2020) WEB-DLRip | IdeaFilm 2.33 GB ↑ 28 ↓ 65
2020-11-21 U Мандалорец / The Mandalorian [02x01-04 из 08] (2020) WEB-DLRip 1080p | IdeaFilm 8.47 GB ↑ 67 ↓ 395
2020-11-21 U Мандалорец / The Mandalorian [02x01-04 из 08] (2020) WEB-DLRip | AlexFilm 2.37 GB ↑ 74 ↓ 389
2020-11-21 U Мандалорец / The Mandalorian [02x01-04 из 08] (2020) WEB-DL 720p | AlexFilm 7.04 GB ↑ 89 ↓ 723

Отзывы
Зарегистрируйтесь чтобы добавить комментарий.
Загрузите программу
  uTorrent.exe
Обратная связь
Copyleft ©