↑↓torrent.by
Поиск
Логин: Регистрация
Пароль: Восстановить пароль

Мандалорец / The Mandalorian [02x01-04 из 08] (2020) WEB-DL 720p | AlexFilm

Скачать mandalorec-the-mandalorian-02x01-04-iz-08-2020-web-dl-720p-alexfilm.torrent
U Магнитная ссылка Размер: 7.04 GB Раздают: 89 Качают: 723 Добавлен: 2020-11-21 17:42:02
Мандалорец / The Mandalorian [02x01-04 из 08] (2020) WEB-DL 720p | AlexFilm

Информация о сериале
Название: Мандалорец
Оригинальное название: The Mandalorian
Год выпуска: 2020
Жанр:  фантастика, боевик, приключения
Режиссер: Дебора Чоу, Рик Фамуйива, Дэйв Филони
В ролях: Педро Паскаль, Кайл Пацек, Брендан Уэйн, Бернард Баллен, Александра Гилман, Луис Ричард Гомес, Джамал Антар, Тейт Флетчер, Тони Табоада, Омид Абтахи

О фильме: Новая стриминговая платформа Disney+ запустилась с козырей — первого игрового сериала по вселенной «Звездных войн». Обладая завидным бюджетом, приключенческая фантастика «Мандалорец» радует глаз олдскульными практическими эффектами, ностальгическими декорациями и реквизитом, более приземленной, чем в оригинале, атмосферой, множеством пасхалок и сюрпризов, а также богатством планет с населяющими их чудаковатыми обитателями. Да и главный герой тут нетипичен: с одной стороны, невозмутимый наемник, с другой — одинокий воин, следующий собственному кодексу чести. За постановку «Мандалорца» отвечал Джон Фавро («Железный человек», «Книга джунглей»), заслуженно вписавший свое имя в империю Уолта Диснея. Он всегда хотел показать непростую жизнь всяких отщепенцев вроде охотников за головами после падения Империи. К тому же ему нравился романтичный, но противоречивый образ контрабандиста Хана Соло. А чтобы сделать приключения Мандалорца не только мрачными, но и эпично-авантюрными, Фавро позвал на подмогу режиссеров Дэйва Филони, вдоль и поперек изучившего далекую галактику в «Войнах клонов» и эксцентрика Тайку Вайтити («Реальные упыри», «Тор: Рагнарек»).

Прошло пять лет после падения Империи, а диктатура Первого Ордена еще не набрала силу. Казалось бы, после победы Повстанцев в галактике должен был воцарить мир. Но некоторые ее обитатели никак не вписываются в привычный уклад, и одним из них становится одинокий охотник за головами, никогда не снимающий шлема с лица Мандалорец (Педро Паскаль). Немногословного бывшего воина мучают воспоминания о гибели родного поселения и своей благородной и некогда сильной нации. Но делать нечего — нужно как-то жить, и Мандалорец соглашается ловить всякое отребье, не особо разбираясь в том, как они провинились. Однажды к нему обращается загадочный клиент (Вернер Херцог) и просит отыскать очередную мишень, предоставляя весьма скудные сведения о цели. Мандалорцу положено знать лишь, что тому, кого он ищет, 50 лет. Каким же оказывается удивление Мандалорца, повидавшего в жизни много диковинных вещей, когда его 50-летняя мишень предстает перед ним куда более молодой на вид особью. Что это за существо, каково его происхождение и почему за ним остервенело охотится половина галактики — это нужно будет выяснить Мандалорцу. А тучи над ним начинают сгущаться: кажется, он, сам того не заметив, угодил в опасную игру, полную закулисных заговоров и вероломных предательств.

Страна: США
Выпущено: Lucasfilm Ltd., Walt Disney Studios
Продолжительность: ~00:50:00 серия
Перевод: Профессиональный (многоголосый, закадровый) AlexFilm

Файл
Качество: WEB-DL 720p | The.Mandalorian.S02.720p.DSNP.WEBRip.DDP5.1.Atmos.x264-NOGRP, The.Mandalorian.S02.720p.WEBRip.DDP5.1.Atmos.x264-MZABI
Формат: Matroska
Видео: 1280x720, 1280x536 at 23.976 fps, MPEG-4 AVC, ~4250 kbps avg
Аудио#1: Russian: 48 kHz, AC3, 3/2 (L,C,R,l,r) + LFE ch, ~384 kbps avg |Многоголосый закадровый, AlexFilm|
Аудио#2: English: 48 kHz, E-AC3 JOC, 3/2 (L,C,R,l,r) + LFE ch, ~768 kbps avg
Субтитры: Russian (Full |Где тексты, Лебовски?|), English (SDH)

***Примечание: Без рекламы


[+] MediaInfo
Общее
Уникальный идентификатор                 : 239408232455916510798190548674545005512 (0xB41C592F8F82A91AAA2A0DE6432533C8)
Полное имя                               : The.Mandalorian.S02E01.mkv
Формат                                   : Matroska
Версия формата                           : Version 2
Размер файла                             : 1,95 Гбайт
Продолжительность                        : 51 м. 48 с.
Режим общего битрейта                    : Переменный
Общий поток                              : 5 398 Кбит/сек
Дата кодирования                         : UTC 2020-10-31 05:41:19
Программа кодирования                    : mkvmerge v5.8.0 ('No Sleep / Pillow') built on Sep  2 2012 15:37:04
Библиотека кодирования                   : libebml v1.2.3 + libmatroska v1.3.0

Видео
Идентификатор                            : 1
Формат                                   : AVC
Формат/Информация                        : Advanced Video Codec
Профиль формата                          : High@L3.1
Настройки формата                        : CABAC / 4 Ref Frames
Параметр CABAC формата                   : Да
Параметр RefFrames формата               : 4 кадра
Идентификатор кодека                     : V_MPEG4/ISO/AVC
Продолжительность                        : 51 м. 48 с.
Вид битрейта                             : Переменный
Битрейт                                  : 4 139 Кбит/сек
Максимальный битрейт                     : 6 375 Кбит/сек
Ширина                                   : 1 280 пикселей
Высота                                   : 720 пикселей
Соотношение сторон                       : 16:9
Режим частоты кадров                     : Постоянный
Частота кадров                           : 23,976 (24000/1001) кадра/сек
Цветовое пространство                    : YUV
Субдискретизация насыщенности            : 4:2:0
Битовая глубина                          : 8 бит
Тип развёртки                            : Прогрессивная
Бит/(Пиксели*Кадры)                      : 0.187
Размер потока                            : 1,50 Гбайт (77%)
Default                                  : Да
Forced                                   : Нет
Цветовой диапазон                        : Limited
Основные цвета                           : BT.709
Характеристики трансфера                 : BT.709
Коэффициенты матрицы                     : BT.709

Аудио #1
Идентификатор                            : 2
Формат                                   : AC-3
Формат/Информация                        : Audio Coding 3
Коммерческое название                    : Dolby Digital
Идентификатор кодека                     : A_AC3
Продолжительность                        : 51 м. 48 с.
Вид битрейта                             : Постоянный
Битрейт                                  : 384 Кбит/сек
Каналы                                   : 6 каналов
Channel layout                           : L R C LFE Ls Rs
Частота                                  : 48,0 КГц
Частота кадров                           : 31,250 кадров/сек (1536 SPF)
Метод сжатия                             : С потерями
Размер потока                            : 142 Мбайт (7%)
Заголовок                                : AlexFilm
Язык                                     : Russian
Service kind                             : Complete Main
Default                                  : Да
Forced                                   : Нет

Аудио #2
Идентификатор                            : 3
Формат                                   : E-AC-3 JOC
Формат/Информация                        : Enhanced AC-3 with Joint Object Coding
Коммерческое название                    : Dolby Digital Plus with Dolby Atmos
Идентификатор кодека                     : A_EAC3
Продолжительность                        : 51 м. 48 с.
Вид битрейта                             : Постоянный
Битрейт                                  : 768 Кбит/сек
Каналы                                   : 6 каналов
Channel layout                           : L R C LFE Ls Rs
Частота                                  : 48,0 КГц
Частота кадров                           : 31,250 кадров/сек (1536 SPF)
Метод сжатия                             : С потерями
Размер потока                            : 285 Мбайт (14%)
Язык                                     : English
Service kind                             : Complete Main
Default                                  : Нет
Forced                                   : Нет
Complexity index                         : 16
Number of dynamic objects                : 15
Bed channel count                        : 1 канал
Bed channel configuration                : LFE

Текст #1
Идентификатор                            : 4
Формат                                   : UTF-8
Идентификатор кодека                     : S_TEXT/UTF8
Идентификатор кодека/Информация          : UTF-8 Plain Text
Заголовок                                : Full
Язык                                     : Russian
Default                                  : Нет
Forced                                   : Нет

Текст #2
Идентификатор                            : 5
Формат                                   : UTF-8
Идентификатор кодека                     : S_TEXT/UTF8
Идентификатор кодека/Информация          : UTF-8 Plain Text
Заголовок                                : SDH
Язык                                     : English
Default                                  : Нет
Forced                                   : Нет



Скриншоты:
[+] Всего файлов в раздаче - 4:
The.Mandalorian.S02E01.mkv1.95 GB
The.Mandalorian.S02E02.mkv1.49 GB
The.Mandalorian.S02E03.mkv1.53 GB
The.Mandalorian.S02E04.mkv2.06 GB

Показать еще раздачи по запросу мандалорец:
2020-11-23 U Мандалорец / The Mandalorian [02x01-04 из 08] (2020) WEB-DL 720p | LostFilm 7.02 GB ↑ 44 ↓ 119
2020-11-23 U Мандалорец / The Mandalorian [02x01-04 из 08] (2020) WEB-DL 1080p | LostFilm 13.05 GB ↑ 67 ↓ 233
2020-11-22 U Мандалорец / The Mandalorian [02x01-04 из 08] (2020) WEB-DLRip 720p | IdeaFilm 4.90 GB ↑ 30 ↓ 43
2020-11-22 U Мандалорец / The Mandalorian [02x01-04 из 08] (2020) WEB-DLRip | IdeaFilm 2.33 GB ↑ 28 ↓ 67
2020-11-21 U Мандалорец / The Mandalorian [02x01-04 из 08] (2020) WEB-DLRip 1080p | IdeaFilm 8.47 GB ↑ 67 ↓ 395
2020-11-21 U Мандалорец / The Mandalorian [02x01-04 из 08] (2020) WEB-DLRip | AlexFilm 2.37 GB ↑ 75 ↓ 389
2020-11-21 U Мандалорец / The Mandalorian [02x01-04 из 08] (2020) WEBRip 1080p | AlexFilm 16.49 GB ↑ 113 ↓ 775

Отзывы
Зарегистрируйтесь чтобы добавить комментарий.
Загрузите программу
  uTorrent.exe
Обратная связь
Copyleft ©