↑↓torrent.by
Поиск
Логин: Регистрация
Пароль: Восстановить пароль

Мадам Парфюмер / Les parfums (2019) WEB-DLRip-AVC | iTunes

Скачать madam-parfyumer-les-parfums-2019-web-dlrip-avc-itunes.torrent
U Магнитная ссылка Размер: 1.46 GB Раздают: 115 Качают: 38 Добавлен: 2020-11-21 17:42:06
Мадам Парфюмер / Les parfums (2019) WEB-DLRip-AVC | iTunes

Название: Мадам Парфюмер
Оригинальное название: Les parfums
Год выхода: 2019
Жанр:  Комедия
Режиссер: Грегори Магне
В ролях: Эммануэль Дево, Грегори Монтель, Зели Риксон, Серхи Лопес, Гюстав Керверн, Полин Мулен, Лиза Перрио, Саша Бурдо, Оливье Брош, Пол Жансон

О фильме:
Анна Вальберг — знаменитость в мире парфюмерии. Она живет как дива, ведет себя как эгоистка с сильным темпераментом. Гийом — её новый водитель и он единственный, кто не прогибается под её напором. Наверное, это причина, по которой она не расстаётся с ним.

Страна: Франция
Студия: Les Films Velvet, France 3 Cinéma, France Télévisions
Продолжительность: 01:41:05
Перевод: Дублированный | iTunes

Файл
Формат: Matroska
Качество: WEB-DLRip-AVC
Видео: AVC/H.264, 1024x430, ~1677 kbps, 0.159 b/px, 24.000 fps
Аудио: AC3, 6 ch, 384 kbps - Русский (iTunes)
Субтитры: Нет


[+] M/I
x264 info: frame I:996   Avg QP:12.65  size: 64959
x264 info: frame P:36340 Avg QP:15.79  size: 18823
x264 info: frame B:108224 Avg QP:17.31  size:  4821
-------------------------------------------------------------
General
Format                                   : Matroska
Format version                           : Version 4
File size                                : 1.46 GiB
Duration                                 : 1 h 41 min
Overall bit rate                         : 2 062 kb/s
Movie name                               : Les parfums 2019.WEBDLRip.AVC.DUB.mikos
Encoded date                             : UTC 2020-11-21 06:59:35
Writing application                      : mkvmerge v51.0.0 ('I Wish') 64-bit
Writing library                          : libebml v1.4.0 + libmatroska v1.6.2

Video
ID                                       : 1
Format                                   : AVC
Format/Info                              : Advanced Video Codec
Format profile                           : High@L4.1
Format settings                          : CABAC / 11 Ref Frames
Format settings, CABAC                   : Yes
Format settings, Reference frames        : 11 frames
Codec ID                                 : V_MPEG4/ISO/AVC
Duration                                 : 1 h 41 min
Bit rate                                 : 1 677 kb/s
Width                                    : 1 024 pixels
Height                                   : 430 pixels
Display aspect ratio                     : 2.40:1
Frame rate mode                          : Constant
Frame rate                               : 24.000 FPS
Color space                              : YUV
Chroma subsampling                       : 4:2:0
Bit depth                                : 8 bits
Scan type                                : Progressive
Bits/(Pixel*Frame)                       : 0.159
Stream size                              : 1.18 GiB (81%)
Title                                    : Rip by mikos
Writing library                          : x264 core 161 r3020 d198931
Encoding settings                        : cabac=1 / ref=11 / deblock=1:-2:-1 / analyse=0x3:0x133 / me=umh / subme=11 / psy=1 / psy_rd=1.00:0.05 / mixed_ref=1 / me_range=32 / chroma_me=1 / trellis=2 / 8x8dct=1 / cqm=0 / deadzone=21,11 / fast_pskip=0 / chroma_qp_offset=-3 / threads=13 / lookahead_threads=3 / sliced_threads=0 / nr=0 / decimate=0 / interlaced=0 / bluray_compat=0 / constrained_intra=0 / bframes=12 / b_pyramid=2 / b_adapt=2 / b_bias=0 / direct=3 / weightb=1 / open_gop=0 / weightp=2 / keyint=240 / keyint_min=23 / scenecut=40 / intra_refresh=0 / rc_lookahead=40 / rc=2pass / mbtree=0 / bitrate=1677 / ratetol=1.0 / qcomp=0.60 / qpmin=0 / qpmax=69 / qpstep=4 / cplxblur=20.0 / qblur=0.5 / vbv_maxrate=50000 / vbv_bufsize=65000 / nal_hrd=none / filler=0 / ip_ratio=1.40 / pb_ratio=1.30 / aq=2:1.00
Language                                 : English
Default                                  : Yes
Forced                                   : No
Color range                              : Limited
Color primaries                          : BT.709
Transfer characteristics                 : BT.709
Matrix coefficients                      : BT.709

Audio
ID                                       : 2
Format                                   : AC-3
Format/Info                              : Audio Coding 3
Commercial name                          : Dolby Digital
Codec ID                                 : A_AC3
Duration                                 : 1 h 41 min
Bit rate mode                            : Constant
Bit rate                                 : 384 kb/s
Channel(s)                               : 6 channels
Channel layout                           : L R C LFE Ls Rs
Sampling rate                            : 48.0 kHz
Frame rate                               : 31.250 FPS (1536 SPF)
Compression mode                         : Lossy
Stream size                              : 278 MiB (19%)
Title                                    : iTunes
Language                                 : Russian
Service kind                             : Complete Main
Default                                  : Yes
Forced                                   : No

Menu
00:00:00.000                             : :Глава 1
00:08:25.416                             : :Глава 2
00:16:51.791                             : :Глава 3
00:25:38.166                             : :Глава 4
00:34:19.416                             : :Глава 5
00:42:29.791                             : :Глава 6
00:50:48.541                             : :Глава 7
00:59:20.957                             : :Глава 8
01:07:39.207                             : :Глава 9
01:15:52.998                             : :Глава 10
01:24:27.123                             : :Глава 11
01:32:42.414                             : :Глава 12



Скриншоты:
[+] Всего файлов в раздаче - 1:
Les parfums 2019.WEBDLRip.AVC.DUB.mikos.mkv1.46 GB

Отзывы
Зарегистрируйтесь чтобы добавить комментарий.
Загрузите программу
  uTorrent.exe
Обратная связь
Copyleft ©