↑↓torrent.by
Поиск
Логин: Регистрация
Пароль: Восстановить пароль

11+ (2018) WEB-DL 1080p от ExKinoRay

Скачать 11-2018-web-dl-1080p-ot-exkinoray.torrent
U Магнитная ссылка Размер: 3.49 GB Раздают: 76 Качают: 18 Добавлен: 2020-11-24 06:48:56
11+ (2018) WEB-DL 1080p от ExKinoRay

Оригинальное название: 11+
Год выпуска: 2018
Жанр:  Комедия, мелодрама, детский, семейный
Режиссер: Мария Сопова, Екатерина Устюгова, Дмитрий Майоров
В ролях: Александр Алёшкин, Елена Лямина, Михаил Новоженин, Дмитрий Белоцерковский, Татьяна Плетнёва, Сергей Новоженин, Дарья Хитарова, Ксения Голубева, Никита Любимов, Полина Тарасова

О фильме:  Детство вспоминается беспечным отрезком жизни лишь с высоты прожитых лет.. Но для детей это время, когда они впервые сталкиваются с ответственностью, принимают решения, учатся признавать ошибки, прощать, любить. Киноальманах 11+ подходит для просмотра всей семьёй. Порой бывает сложно рассказать своим детям о чем-то важном для себя и для них. В сборник короткометражек «11+» вошли три очень разных фильма, которые помогут пережить важный опыт взросления, почувствовать то, о чем сложно сказать.

Страна: Россия
Студия: Студия "Свободное кино", Детская социальная Киностудия"КиноШкид"
Продолжительность: 01:34:09
Язык: Русский

Формат: MKV
Качество: WEB-DL 1080p
Видео: MPEG-4 AVC, 1920x1080 (16:9), 5005 Kbps, 24.000 fps
Аудио: AC3, 48.0 KHz, 2.0 ch, 192 kbps | RUS |
Субтитры: Нет

Релиз:

Автор релиза:
[+] MediaInfo
General
Unique ID                                : 216039259997215271512657401357360514233 (0xA287A5E3465F5612B24D3B9D1EB544B9)
Complete name                            : G:11+.2018.WEB-DL.1080p.ExKinoRay.mkv
Format                                   : Matroska
Format version                           : Version 2
File size                                : 3.49 GiB
Duration                                 : 1 h 34 min
Overall bit rate                         : 5 306 kb/s
Movie name                               : 11+ 2018 from ExKinoRay
Encoded date                             : UTC 2020-11-22 22:03:54
Writing application                      : mkvmerge v5.6.0 ('Kenya Kane') built on May 27 2012 16:44:04
Writing library                          : libebml v1.2.3 + libmatroska v1.3.0

Video
ID                                       : 1
Format                                   : AVC
Format/Info                              : Advanced Video Codec
Format profile                           : High@L4
Format settings, CABAC                   : Yes
Format settings, ReFrames                : 4 frames
Codec ID                                 : V_MPEG4/ISO/AVC
Duration                                 : 1 h 34 min
Bit rate                                 : 5 009 kb/s
Width                                    : 1 920 pixels
Height                                   : 1 080 pixels
Display aspect ratio                     : 16:9
Frame rate mode                          : Constant
Frame rate                               : 24.000 FPS
Color space                              : YUV
Chroma subsampling                       : 4:2:0
Bit depth                                : 8 bits
Scan type                                : Progressive
Bits/(Pixel*Frame)                       : 0.101
Stream size                              : 3.29 GiB (94%)
Default                                  : Yes
Forced                                   : No

Audio
ID                                       : 2
Format                                   : AC-3
Format/Info                              : Audio Coding 3
Mode extension                           : CM (complete main)
Format settings, Endianness              : Big
Codec ID                                 : A_AC3
Duration                                 : 1 h 34 min
Bit rate mode                            : Constant
Bit rate                                 : 192 kb/s
Channel(s)                               : 2 channels
Channel positions                        : Front: L R
Sampling rate                            : 48.0 kHz
Frame rate                               : 31.250 FPS (1536 spf)
Compression mode                         : Lossy
Stream size                              : 129 MiB (4%)
Language                                 : Russian
Default                                  : Yes
Forced                                   : No




Скриншоты:
[+] Всего файлов в раздаче - 1:
11+.2018.WEB-DL.1080p.ExKinoRay.mkv3.49 GB

Показать еще раздачи по запросу exkinoray:
Сегодня U Карантин Z / Redcon-1 (2018) BDRip-AVC от ExKinoRay | iTunes 745.37 MB ↑ 21 ↓ 3
Сегодня U Марлен [01-02 из 20] (2021) WEBRip 1080p от ExKinoRay 4.24 GB ↑ 28 ↓ 26
Сегодня U Поездка в Америку 2 / Coming 2 America (2021) WEB-DLRip-AVC от ExKinoRay | Jaskier 1.45 GB ↑ 47 ↓ 40
Вчера U Беспринципные [01-08 из 08] (2020) WEBRip 1080p от ExKinoRay 15.91 GB ↑ 36 ↓ 36
Вчера U Летние забавы / Happy Campers (2001) WEB-DLRip-AVC от ExKinoRay | P2 2.38 GB ↑ 37 ↓ 11
Вчера U Концерт группы Рондо - Нам 35 (2021) HDTV (1080i) от ExKinoRay 5.47 GB ↑ 42 ↓ 14
Вчера U Я не шучу [01-05 из 08] (2021) WEBRip 720p от ExKinoRay 3.72 GB ↑ 112 ↓ 102

Отзывы
Зарегистрируйтесь чтобы добавить комментарий.
Загрузите программу
  uTorrent.exe
Обратная связь
Copyleft ©