↑↓torrent.by
Поиск
Логин: Регистрация
Пароль: Восстановить пароль

Джиу-джитсу: Битва за Землю / Jiu Jitsu (2020) WEBRip 720p | iTunes

Скачать dzhiu-dzhitsu-bitva-za-zemlyu-jiu-jitsu-2020-webrip-720p-itunes.torrent
U Магнитная ссылка Размер: 3.74 GB Раздают: 251 Качают: 116 Добавлен: 2020-11-24 19:11:45
Джиу-джитсу: Битва за Землю / Jiu Jitsu (2020) WEBRip 720p | iTunes

Название: Джиу-джитсу: Битва за Землю
Оригинальное название: Jiu Jitsu
Год выхода: 2020
Жанр: Боевик, фантастика
Режиссер: Димитри Логотетис
В ролях: Николас Кейдж, Мари Авгеропулос, Фрэнк Грилло, Тони Джа, Рик Юн, Жужу Чан, Ален Мусси, Эдди Стиплз, Маррезе Крамп, Том Уокер, Мари Авгеропулос, Маррезе Крамп, Дэн Риццуто, Риган Мачадо

О фильме:
Тысячелетиями наш мир охранял древний Орден боевых искусств. Когда каждые шесть лет на Землю проникала инопланетная раса, он удерживал планету от захвата, но равновесие было нарушено, и очередное вторжение может стать последним. Потерявший память морпех Джейк должен объединиться с таинственным странником и новым поколением бойцов Ордена, чтобы человечество получило шанс на спасение.

Страна: США
Студия: Acme Rocket Fuel, Green Olive Films
Продолжительность: 01:42:21
Перевод: Дублированный | iTunes

Файл
Кодек: x.264
Качество: WEBRip 720p
Видео: MPEG-4 AVC, 4200 Kбит/с, 1280x536, 23.976 кадр/с
Аудио #1: Русский (АС3, 6 ch, 384 Кбит/с, 48.0 KHz) Профессиональный (дублированный) iTunes
Аудио #2: Английский (АС3, 6 ch, 640 Кбит/с, 48.0 KHz)
Субтитры: Русские (Full), английские
Трейлер




[+] MediaInfo
Источник: Jiu.Jitsu.2020.1080p.AMZN.WEB-DL.DDP5.1.x264-NTG
General
Unique ID                      : 239743516926897863159551534926672083742 (0xB45CEBFC8A88888F9D5DE8C5BEFEBB1E)
Complete name                  : Jiu.Jitsu.2020.AMZN.WEBRip.720p.mkv
Format                         : Matroska
Format version                 : Version 4
File size                      : 3.74 GiB
Duration                       : 1 h 42 min
Overall bit rate               : 5 225 kb/s
Encoded date                   : UTC 2020-11-24 12:20:29
Writing application            : mkvmerge v7.1.0 ('Good Love') 64bit built on Jul 27 2014 13:06:55
Writing library                : libebml v1.3.0 + libmatroska v1.4.1

Video
ID                             : 1
Format                         : AVC
Format/Info                    : Advanced Video Codec
Format profile                 : High@L4.1
Format settings                : CABAC / 12 Ref Frames
Format settings, CABAC         : Yes
Format settings, Reference fra : 12 frames
Codec ID                       : V_MPEG4/ISO/AVC
Duration                       : 1 h 42 min
Bit rate                       : 4 200 kb/s
Width                          : 1 280 pixels
Height                         : 536 pixels
Display aspect ratio           : 2.40:1
Frame rate mode                : Constant
Frame rate                     : 23.976 (24000/1001) FPS
Color space                    : YUV
Chroma subsampling             : 4:2:0
Bit depth                      : 8 bits
Scan type                      : Progressive
Bits/(Pixel*Frame)             : 0.255
Stream size                    : 3.00 GiB (80%)
Writing library                : x264 core 157 r2958 57baac4
Encoding settings              : cabac=1 / ref=12 / deblock=1:-3:-3 / analyse=0x3:0x133 / me=umh / subme=11 / psy=1 / psy_rd=1.00:0.00 / mixed_ref=1 / me_range=48 / chroma_me=1 / trellis=2 / 8x8dct=1 / cqm=0 / deadzone=21,11 / fast_pskip=1 / chroma_qp_offset=-2 / threads=17 / lookahead_threads=4 / sliced_threads=0 / nr=0 / decimate=1 / interlaced=0 / bluray_compat=0 / constrained_intra=0 / bframes=10 / b_pyramid=2 / b_adapt=2 / b_bias=0 / direct=3 / weightb=1 / open_gop=0 / weightp=2 / keyint=240 / keyint_min=24 / scenecut=40 / intra_refresh=0 / rc_lookahead=60 / rc=2pass / mbtree=1 / bitrate=4200 / ratetol=1.0 / qcomp=0.60 / qpmin=0 / qpmax=69 / qpstep=4 / cplxblur=20.0 / qblur=0.5 / ip_ratio=1.40 / aq=1:1.00
Language                       : English
Default                        : Yes
Forced                         : No
Color range                    : Limited
Color primaries                : BT.709
Transfer characteristics       : BT.709
Matrix coefficients            : BT.709

Audio #1
ID                             : 2
Format                         : AC-3
Format/Info                    : Audio Coding 3
Commercial name                : Dolby Digital
Codec ID                       : A_AC3
Duration                       : 1 h 42 min
Bit rate mode                  : Constant
Bit rate                       : 384 kb/s
Channel(s)                     : 6 channels
Channel layout                 : L R C LFE Ls Rs
Sampling rate                  : 48.0 kHz
Frame rate                     : 31.250 FPS (1536 SPF)
Compression mode               : Lossy
Stream size                    : 281 MiB (7%)
Title                          : DUB | iTunes
Language                       : Russian
Service kind                   : Complete Main
Default                        : Yes
Forced                         : No

Audio #2
ID                             : 3
Format                         : AC-3
Format/Info                    : Audio Coding 3
Commercial name                : Dolby Digital
Codec ID                       : A_AC3
Duration                       : 1 h 42 min
Bit rate mode                  : Constant
Bit rate                       : 640 kb/s
Channel(s)                     : 6 channels
Channel layout                 : L R C LFE Ls Rs
Sampling rate                  : 48.0 kHz
Frame rate                     : 31.250 FPS (1536 SPF)
Compression mode               : Lossy
Stream size                    : 469 MiB (12%)
Language                       : English
Service kind                   : Complete Main
Default                        : No
Forced                         : No

Text #1
ID                             : 4
Format                         : UTF-8
Codec ID                       : S_TEXT/UTF8
Codec ID/Info                  : UTF-8 Plain Text
Duration                       : 1 h 36 min
Bit rate                       : 39 b/s
Count of elements              : 609
Stream size                    : 27.7 KiB (0%)
Title                          : Full
Language                       : Russian
Default                        : No
Forced                         : No

Text #2
ID                             : 5
Format                         : UTF-8
Codec ID                       : S_TEXT/UTF8
Codec ID/Info                  : UTF-8 Plain Text
Duration                       : 1 h 36 min
Bit rate                       : 29 b/s
Count of elements              : 969
Stream size                    : 21.2 KiB (0%)
Title                          : SDH
Language                       : English
Default                        : No
Forced                         : No



Скриншоты:
[+] Всего файлов в раздаче - 1:
Jiu.Jitsu.2020.AMZN.WEBRip.720p.mkv3.74 GB

Показать еще раздачи по запросу джиу:
2021-01-11 U Джиу-джитсу: Битва за Землю / Jiu Jitsu (2020) HDRip-AVC от ExKinoRay | iTunes 1.40 GB ↑ 89 ↓ 13
2021-01-11 U Джиу-джитсу: Битва за Землю / Jiu Jitsu (2020) BDRip 720p от селезень | iTunes 5.88 GB ↑ 65 ↓ 32
2021-01-11 U Джиу-джитсу: Битва за Землю / Jiu Jitsu (2020) BDRip 1080p от селезень | iTunes 11.22 GB ↑ 61 ↓ 51
2020-12-13 U Джиу-джитсу: Битва за Землю / Jiu Jitsu (2020) HDRip | iTunes 1.46 GB ↑ 79 ↓ 62
2020-11-25 U Джиу-джитсу: Битва за Землю / Jiu Jitsu (2020) WEBRip от Portablius | iTunes 745.28 MB ↑ 116 ↓ 16
2020-11-24 U Джиу-джитсу: Битва за Землю / Jiu Jitsu (2020) WEB-DLRip от ELEKTRI4KA | iTunes 1.46 GB ↑ 239 ↓ 126
2020-01-26 U Ренцо и Ройлер Грейси - Бразильское Джиу-Джитсу. Теория и Техника (2005) DjVu 4.74 MB ↑ 160 ↓ 8

Отзывы
Зарегистрируйтесь чтобы добавить комментарий.
Загрузите программу
  uTorrent.exe
Обратная связь
Copyleft ©