↑↓torrent.by
Поиск
Логин: Регистрация
Пароль: Восстановить пароль

Большой куш / Твари, цепляющиеся за соломинки / Jipuragirado japgo sipeun jimseungdeul (2020) BDRip 720p | iTunes

Скачать bolshoy-kush-tvari-ceplyayuschiesya-za-solominki-jipuragirado-japgo-sipeun-jimseungdeul-2020-bdrip-720p-itunes.torrent
U Магнитная ссылка Размер: 5.73 GB Раздают: 233 Качают: 160 Добавлен: 2020-12-07 19:41:05
Большой куш / Твари, цепляющиеся за соломинки / Jipuragirado japgo sipeun jimseungdeul (2020) BDRip 720p | iTunes

Название: Большой куш / Твари, цепляющиеся за соломинки
Оригинальное название: Jipuragirado japgo sipeun jimseungdeul
Год выхода: 2020
Жанр: Триллер, криминал, драма
Режиссер: Ким Ён-хун
В ролях: Чон До-ён, Чон У-сон, Пэ Сон-у, Юн Ё-джон, Чон Ман-щик, Щин Хён-бин, Чон Га-рам, Чин Гён, Пак Чи-хван, Ким Джун-хан

О фильме:
Работник бани находит в шкафчике забытую посетителем сумку, которая оказывается набита деньгами. Он относит её на склад забытых вещей, но поскольку мужчине нечем заплатить за обучение дочери, да ещё пожилая мать страдает деменцией и изводит невестку, он всё чаще подумывает забрать деньги себе. Сотрудник портовой таможни пытается договориться с коллекторами об отсрочке, так как бывшая девушка оставила его по уши в долгах и исчезла. Женщина, которая не от хорошей жизни работает проституткой, вместе с молодым любовником думает пришить ставшего часто распускать руки мужа. Эти незнакомые между собой люди невероятным образом повлияют на судьбы друг друга.
 
Страна: Южная Корея
Студия: BA Entertainment, Megabox Plus M
Продолжительность: 01:48:46
Перевод: Профессиональный (многоголосый, закадровый) | iTunes

Файл
Качество: BDRip 720p | iTunes
Видео: AVC/H.264, 1280x536, ~6515 Кbps, 24 fps
Звук:
Аудио 1: AC3, 6 ch, 384 Kbps - Русский
Аудио 2: AC3, 6 ch, 640 Kbps - Корейский
Субтитры: Русские (Full), Английские (Full)


[+] Mediainfo
Общее
Уникальный идентификатор                 : 220269571261216682721558418737445264607 (0xA5B660560B55FF0EADF31356B83CDCDF)
Полное имя                               : Beasts That Cling to the Straw.2020.BDRip.720p.W.mkv
Формат                                   : Matroska
Версия формата                           : Version 4
Размер файла                             : 5,73 Гбайт
Продолжительность                        : 1 ч. 48 м.
Общий поток                              : 7 541 Кбит/сек
Название фильма                          : Beasts That Cling to the Straw.2020.BDRip.720p.W
Дата кодирования                         : UTC 2020-12-07 10:43:25
Программа кодирования                    : mkvmerge v23.0.0 ('The Bride Said No') 64-bit
Библиотека кодирования                   : libebml v1.3.6 + libmatroska v1.4.9

Видео
Идентификатор                            : 1
Формат                                   : AVC
Формат/Информация                        : Advanced Video Codec
Профиль формата                          : High@L4.1
Настройки формата                        : CABAC / 12 Ref Frames
Параметр CABAC формата                   : Да
Параметр RefFrames формата               : 12 кадров
Идентификатор кодека                     : V_MPEG4/ISO/AVC
Продолжительность                        : 1 ч. 48 м.
Битрейт                                  : 6 515 Кбит/сек
Ширина                                   : 1 280 пикселей
Высота                                   : 536 пикселей
Соотношение сторон                       : 2,40:1
Режим частоты кадров                     : Постоянный
Частота кадров                           : 24,000 кадра/сек
Цветовое пространство                    : YUV
Субдискретизация насыщенности            : 4:2:0
Битовая глубина                          : 8 бит
Тип развёртки                            : Прогрессивная
Бит/(Пиксели*Кадры)                      : 0.396
Размер потока                            : 4,95 Гбайт (86%)
Библиотека кодирования                   : x264 core 161 r3015+58M ~ Encoded by Mocunaman in Portugal
Настройки программы                      : cabac=1 / ref=12 / deblock=1:-3:-3 / analyse=0x3:0x113 / me=umh / subme=11 / psy=1 / fade_compensate=0.00 / psy_rd=1.00:0.00 / mixed_ref=1 / me_range=32 / chroma_me=1 / trellis=2 / 8x8dct=1 / cqm=0 / deadzone=21,11 / fast_pskip=0 / chroma_qp_offset=-2 / threads=17 / lookahead_threads=2 / sliced_threads=0 / nr=0 / decimate=0 / interlaced=0 / bluray_compat=0 / constrained_intra=0 / fgo=0 / bframes=8 / b_pyramid=2 / b_adapt=2 / b_bias=0 / direct=3 / weightb=1 / open_gop=0 / weightp=2 / keyint=250 / keyint_min=24 / scenecut=40 / intra_refresh=0 / rc_lookahead=60 / rc=crf / mbtree=0 / crf=16.3000 / qcomp=0.65 / qpmin=0:0:0 / qpmax=69:69:69 / qpstep=4 / vbv_maxrate=62500 / vbv_bufsize=78125 / crf_max=0.0 / nal_hrd=none / filler=0 / ip_ratio=1.30 / pb_ratio=1.20 / aq=3:0.80 / aq-sensitivity=10.00 / aq-factor=1.00:1.00:1.00 / aq2=0 / aq3=0 / zones=4936,6272,crf=15.8/10962,18965,crf=15.3/26110,29237,crf=15.8/32477,33750,crf=15.8/48367,63175,crf=15.3/69080,69360,crf=15.8/75672,81820,crf=15.3/88771,90355,crf=15.8/95772,95772,crf=15.3/110901,115053,crf=15.8/116493,118539,crf=15.8
Язык                                     : Korean
Default                                  : Да
Forced                                   : Нет
Цветовой диапазон                        : Limited
Основные цвета                           : BT.709
Характеристики трансфера                 : BT.709
Коэффициенты матрицы                     : BT.709

Аудио #1
Идентификатор                            : 2
Формат                                   : AC-3
Формат/Информация                        : Audio Coding 3
Коммерческое название                    : Dolby Digital
Идентификатор кодека                     : A_AC3
Продолжительность                        : 1 ч. 48 м.
Вид битрейта                             : Постоянный
Битрейт                                  : 384 Кбит/сек
Каналы                                   : 6 каналов
Channel layout                           : L R C LFE Ls Rs
Частота                                  : 48,0 КГц
Частота кадров                           : 31,250 кадров/сек (1536 SPF)
Метод сжатия                             : С потерями
Размер потока                            : 299 Мбайт (5%)
Заголовок                                : MVO (iTunes)
Язык                                     : Russian
Service kind                             : Complete Main
Default                                  : Да
Forced                                   : Нет

Аудио #2
Идентификатор                            : 3
Формат                                   : AC-3
Формат/Информация                        : Audio Coding 3
Коммерческое название                    : Dolby Digital
Идентификатор кодека                     : A_AC3
Продолжительность                        : 1 ч. 48 м.
Вид битрейта                             : Постоянный
Битрейт                                  : 640 Кбит/сек
Каналы                                   : 6 каналов
Channel layout                           : L R C LFE Ls Rs
Частота                                  : 48,0 КГц
Частота кадров                           : 31,250 кадров/сек (1536 SPF)
Метод сжатия                             : С потерями
Размер потока                            : 498 Мбайт (8%)
Язык                                     : Korean
Service kind                             : Complete Main
Default                                  : Нет
Forced                                   : Нет

Текст #1
Идентификатор                            : 4
Формат                                   : UTF-8
Идентификатор кодека                     : S_TEXT/UTF8
Идентификатор кодека/Информация          : UTF-8 Plain Text
Продолжительность                        : 1 ч. 42 м.
Битрейт                                  : 66 бит/сек
Count of elements                        : 1236
Размер потока                            : 50,1 Кбайт (0%)
Заголовок                                : Focs
Язык                                     : Russian
Default                                  : Нет
Forced                                   : Нет

Текст #2
Идентификатор                            : 5
Формат                                   : UTF-8
Идентификатор кодека                     : S_TEXT/UTF8
Идентификатор кодека/Информация          : UTF-8 Plain Text
Продолжительность                        : 1 ч. 41 м.
Битрейт                                  : 40 бит/сек
Count of elements                        : 1242
Размер потока                            : 29,7 Кбайт (0%)
Язык                                     : English
Default                                  : Нет
Forced                                   : Нет

Меню
00:00:00.000                             : en:00:00:00.000
00:06:26.208                             : en:00:06:26.208
00:10:31.042                             : en:00:10:31.042
00:15:19.750                             : en:00:15:19.750
00:20:16.208                             : en:00:20:16.208
00:23:49.042                             : en:00:23:49.042
00:27:51.625                             : en:00:27:51.625
00:31:01.917                             : en:00:31:01.917
00:39:34.708                             : en:00:39:34.708
00:43:58.083                             : en:00:43:58.083
00:49:03.042                             : en:00:49:03.042
00:56:49.250                             : en:00:56:49.250
01:02:44.625                             : en:01:02:44.625
01:06:27.583                             : en:01:06:27.583
01:16:26.375                             : en:01:16:26.375
01:22:36.208                             : en:01:22:36.208
01:26:40.458                             : en:01:26:40.458
01:31:54.458                             : en:01:31:54.458
01:37:55.083                             : en:01:37:55.083
01:41:29.833                             : en:01:41:29.833



Скриншоты:
[+] Всего файлов в раздаче - 1:
Beasts That Cling to the Straw.2020.BDRip.720p.W.mkv5.73 GB

Показать еще раздачи по запросу большой:
2021-01-08 U Большой Барьерный риф: Живое сокровище / Great Barrier Reef: A Living Treasure [01-04 из 04] (2020) DVB | P1 4.60 GB ↑ 93 ↓ 15
2020-12-23 U Улика из прошлого. Тегеран-43: последняя тайна «Большой тройки» (2020) SATRip 514.30 MB ↑ 75 ↓ 12
2020-12-08 U Большой куш / Твари, цепляющиеся за соломинки / Jipuragirado japgo sipeun jimseungdeul (2020) BDRemux 1080p | iTunes 18.47 GB ↑ 98 ↓ 12
2020-12-07 U Большой куш / Твари, цепляющиеся за соломинки / Jipuragirado japgo sipeun jimseungdeul (2020) BDRip от MegaPeer | iTunes 1.46 GB ↑ 349 ↓ 93
2020-11-26 U Секретные материалы. Дальневосточный передел: закулисье большой игры (2020) SATRip 513.35 MB ↑ 56 ↓ 11
2020-07-24 U Большой иллюстрированный словарь. Русский. Английский. Немецкий. Французский. Испанский (2005) PDF 88.37 MB ↑ 656 ↓ 52
2020-03-13 U Габриэль Билич, Елена Зигалова - Анатомия и физиология. Большой популярный атлас (2017) PDF 1К61.89 MB ↑ 485 ↓ 47

Отзывы
Зарегистрируйтесь чтобы добавить комментарий.
Загрузите программу
  uTorrent.exe
Обратная связь
Copyleft ©