↑↓torrent.by
Поиск
Логин: Регистрация
Пароль: Восстановить пароль

Уральские пельмени. Мятый элемент [эфир от 08.10] (2021) WEB-DL 1080p

Скачать uralskie-pelmeni-myatyy-element-efir-ot-08-10-2021-web-dl-1080p.torrent
U Магнитная ссылка Размер: 1.87 GB Раздают: 1236 Качают: 202 Добавлен: 2021-10-09 20:04:22
Уральские пельмени. Мятый элемент [эфир от 08.10] (2021) WEB-DL 1080p

Название: Уральские пельмени. Мятый элемент
Год выхода: 2021
Жанр: ТВ-шоу, юмор, сатира, развлекательный
Режиссер: Константин Куц, Леонид Коновалов, Анастасия Гуделова
В ролях: Дмитрий Брекоткин, Сергей Ершов, Сергей Исаев, Сергей Калугин, Вячеслав Мясников, Александр Попов, Андрей Рожков, Дмитрий Соколов (V), Максим Ярица, Стефания-Марьяна Гурская, Илана Юрьева, Ксения Корнева

О фильме:
Ночью это храпящий элемент. Днём это работящий элемент. Вечером это лежаще-смотрящий элемент. А в субботу утром это мятый элемент!

Страна: Россия
Студия: YBW Group, СТС
Продолжительность: 01:12:33
Язык: Русский

Дата эфира: 08 октября 2021 года (СТС)
Примечание: Без рекламы

Файл
Формат: MKV
Качество: WEB-DL 1080p
Видео: MPEG-4 AVC, 3500 кбит/с, 1920x1080
Звук: AC3, 2 ch, 192 Кбит/с


[+] MI
Общее
Уникальный идентификатор                 : 149953152215407774302829637536611154629 (0x70CFED365BB666D4F07EA3B204C1BAC5)
Полное имя                               : D:Uralskie.pelmeni.08.10.2021.WEB-DL.1080p.mkv
Формат                                   : Matroska
Версия формата                           : Version 4
Размер файла                             : 1,87 Гбайт
Продолжительность                        : 1 ч. 12 м.
Общий поток                              : 3 689 Кбит/сек
Название фильма                          : Uralskie.pelmeni.08.10.2021.WEB-DL.1080p
Дата кодирования                         : UTC 2021-10-09 04:17:01
Программа кодирования                    : mkvmerge v60.0.0 ('Are We Copies?') 64-bit
Библиотека кодирования                   : libebml v1.4.2 + libmatroska v1.6.4
Attachments                              : poster.jpg

Видео
Идентификатор                            : 1
Формат                                   : AVC
Формат/Информация                        : Advanced Video Codec
Профиль формата                          : High@L5
Настройки формата                        : CABAC / 5 Ref Frames
Параметр CABAC формата                   : Да
Параметр RefFrames формата               : 5 кадров
Идентификатор кодека                     : V_MPEG4/ISO/AVC
Продолжительность                        : 1 ч. 12 м.
Битрейт                                  : 3 495 Кбит/сек
Ширина                                   : 1 920 пикселей
Высота                                   : 1 080 пикселей
Соотношение сторон                       : 16:9
Режим частоты кадров                     : Постоянный
Частота кадров                           : 25,000 кадров/сек
Стандарт вещания                         : PAL
Цветовое пространство                    : YUV
Субдискретизация насыщенности            : 4:2:0
Битовая глубина                          : 8 бит
Тип развёртки                            : Прогрессивная
Бит/(Пиксели*Кадры)                      : 0.067
Размер потока                            : 1,77 Гбайт (95%)
Default                                  : Да
Forced                                   : Нет
Цветовой диапазон                        : Limited
Основные цвета                           : BT.709
Характеристики трансфера                 : BT.709
Коэффициенты матрицы                     : BT.709

Аудио
Идентификатор                            : 2
Формат                                   : AC-3
Формат/Информация                        : Audio Coding 3
Коммерческое название                    : Dolby Digital
Идентификатор кодека                     : A_AC3
Продолжительность                        : 1 ч. 12 м.
Вид битрейта                             : Постоянный
Битрейт                                  : 192 Кбит/сек
Каналы                                   : 2 канала
Channel layout                           : L R
Частота                                  : 48,0 КГц
Частота кадров                           : 31,250 кадров/сек (1536 SPF)
Метод сжатия                             : С потерями
Размер потока                            : 99,6 Мбайт (5%)
Service kind                             : Complete Main
Default                                  : Да
Forced                                   : Нет



Скриншоты:
[+] Всего файлов в раздаче - 1:

Похожие раздачи по запросу - уральские:
2022-02-26 U Уральские пельмени - Азбука Уральских пельменей - Я [эфир от 25.02] (2022) WEBRip 1080p 2.34 GB ↑ 415 ↓ 119
2022-02-19 U Уральские пельмени. Триумфальная сварка [эфир от 18.02] (2022) WEB-DL 1080p 2.39 GB ↑ 235 ↓ 171
2022-02-14 U Уральские пельмени. Ума лопата [эфир от 11.02] (2022) WEB-DL 1080p 2.46 GB ↑ 159 ↓ 60
2022-01-01 U Уральские пельмени. Пир во время зимы [эфир от 31.12] (2021) WEBRip 1080p от DolgOFF 1.75 GB ↑ 470 ↓ 251
2022-01-01 U Уральские пельмени. Человек с бульвара мандаринов [эфир от 01.01] (2022) WEBRip 1080p от DolgOFF 1.89 GB ↑ 566 ↓ 216
2021-10-30 U Уральские пельмени. Агронавты [эфир от 29.10] (2021) WEB-DLRip 989.42 MB ↑ 238 ↓ 77
2021-10-23 U Уральские пельмени. Без задних нот [эфир от 22.10] (2021) WEB-DLRip 989.12 MB ↑ 98 ↓ 59

Отзывы
Зарегистрируйтесь чтобы добавить комментарий.
Торрент клиент
byTorrent - программа для загрузки торрент-файлов.

Скачать byTorrent.exe

Скачать byTorrent.zip

Поддержи torrent.by
российских рублей
(300 российских рублей это 4$)

Обратная связь rss
End ©