↑↓torrent.by
Поиск
Логин: Регистрация
Пароль: Восстановить пароль

Люпен III: Первый / Lupin III: The First (2019) BDRip 1080p от ELEKTRI4KA | iTunes

Скачать lyupen-iii-pervyy-lupin-the-first-2019-bdrip-1080p-ot-elektri4ka-itunes.torrent
U Магнитная ссылка Размер: 7.65 GB Раздают: 38 Качают: 12 Добавлен: 2020-12-14 08:11:35
Люпен III: Первый / Lupin III: The First (2019) BDRip 1080p от ELEKTRI4KA | iTunes

Информация
Название: Люпен III: Первый
Оригинальное название: Lupin III: The First
Год выхода: 2019
Жанр: Аниме, мультфильм, боевик, приключения, комедия, криминал
Режиссер: Такаси Ямадзаки
Роли озвучивают: Канъити Курита, Тацуя Фудзивара, Судзу Хиросэ, Киёси Кобаяси, Даисукэ Намикава, Миюки Савасиро, Коити Ямадэра, Котаро Ёсида

Описание: Известный вор Люпен III объединяется с женщиной по имени Летиция, чтобы украсть дневник Брессона - сокровище, заполучить которое оказалось не по зубам даже его знаменитому деду.

Выпущено: Япония / Chukyo TV Broadcasting Company (CTV), Miyagi Television Broadcasting, Shirogumi, Yomiuri Telecasting Corporation (YTV)
Продолжительность: 01:32:40
Озвучивание: Профессиональное (многоголосое) | iTunes

Файл
Формат: MKV
Качество: BDRip 1080p
Видео: MPEG-4 AVC, 10.8 Mb/s, 1920x804
Аудио #1: Russian: 48 kHz, AC3 Dolby Digital, 3/2 (L, C, R, l, r) + LFE ch, ~384 Kbps | iTunes
Аудио #2: Japanese: 48 kHz, AC3 Dolby Digital, 3/2 (L, C, R, l, r) + LFE ch, ~640 Kbps | Original
Субтитры: Нет
Дополнительно: Сохранены оригинальные чаптеры.

Релиз: &


[+] MediaInfo:
Complete name: Lyupen.III.Pervyiy.2019.Bluray.1080p.ELEKTRI4KA.UNIONGANG.mkv
Format: Matroska
Format version: Version 4 / Version 2
File size: 7.65 GiB
Duration: 1 h 32 min
Overall bit rate: 11.8 Mb/s
Movie name: .ELEKTRI4KA.UNIONGANG.
Encoded date: UTC 2020-12-13 11:04:27
Writing application: mkvmerge v8.3.0 ('Over the Horizon') 64bit
Writing library: libebml v1.3.1 + libmatroska v1.4.2

Video
ID: 1
Format: AVC
Format/Info: Advanced Video Codec
Format profile: High@L4.1
Format settings, CABAC: Yes
Format settings, Reference frames: 5 frames
Codec ID: V_MPEG4/ISO/AVC
Duration: 1 h 32 min
Bit rate: 10.8 Mb/s
Width: 1 920 pixels
Height: 804 pixels
Display aspect ratio: 2.40:1
Frame rate mode: Constant
Frame rate: 23.976 (24000/1001) FPS
Color space: YUV
Chroma subsampling: 4:2:0
Bit depth: 8 bits
Scan type: Progressive
Bits/(Pixel*Frame): 0.292
Stream size: 6.98 GiB (91%)
Title: .ELEKTRI4KA.UNIONGANG.
Writing library: x264 core 157 r2958 57baac4
Encoding settings: cabac=1 / ref=5 / deblock=1:-3:-3 / analyse=0x3:0x113 / me=umh / subme=10 / psy=1 / psy_rd=2.00:0.15 / mixed_ref=1 / me_range=32 / chroma_me=1 / trellis=2 / 8x8dct=1 / cqm=0 / deadzone=21, 11 / fast_pskip=1 / chroma_qp_offset=-3 / threads=25 / lookahead_threads=4 / sliced_threads=0 / nr=0 / decimate=1 / interlaced=0 / bluray_compat=0 / constrained_intra=0 / bframes=8 / b_pyramid=2 / b_adapt=2 / b_bias=0 / direct=3 / weightb=1 / open_gop=0 / weightp=0 / keyint=240 / keyint_min=24 / scenecut=40 / intra_refresh=0 / rc_lookahead=60 / rc=2pass / mbtree=1 / bitrate=10800 / ratetol=1.0 / qcomp=0.60 / qpmin=0 / qpmax=69 / qpstep=4 / cplxblur=20.0 / qblur=0.5 / ip_ratio=1.40 / aq=1:1.20
Default: Yes
Forced: No

Audio #1
ID: 2
Format: AC-3
Format/Info: Audio Coding 3
Mode extension: CM (complete main)
Format settings, Endianness: Big
Codec ID: A_AC3
Duration: 1 h 32 min
Bit rate mode: Constant
Bit rate: 384 kb/s
Channel(s): 6 channels
Channel positions: Front: L C R, Side: L R, LFE
Sampling rate: 48.0 kHz
Frame rate: 31.250 FPS (1536 spf)
Bit depth: 16 bits
Compression mode: Lossy
Stream size: 254 MiB (3%)
Title: MVO (iTunes)
Language: Russian
Default: Yes
Forced: Yes

Audio #2
ID: 3
Format: AC-3
Format/Info: Audio Coding 3
Mode extension: CM (complete main)
Format settings, Endianness: Big
Codec ID: A_AC3
Duration: 1 h 32 min
Bit rate mode: Constant
Bit rate: 640 kb/s
Channel(s): 6 channels
Channel positions: Front: L C R, Side: L R, LFE
Sampling rate: 48.0 kHz
Frame rate: 31.250 FPS (1536 spf)
Bit depth: 16 bits
Compression mode: Lossy
Stream size: 424 MiB (5%)
Language: Japanese
Default: No
Forced: No

Menu
00:00:00.000: :Chapter 1
00:07:56.517: :Chapter 2
00:15:04.361: :Chapter 3
00:23:11.973: :Chapter 4
00:30:26.491: :Chapter 5
00:38:26.762: :Chapter 6
00:46:05.471: :Chapter 7
00:54:10.747: :Chapter 8
01:01:41.364: :Chapter 9
01:08:25.434: :Chapter 10
01:16:20.075: :Chapter 11
01:24:59.469: :Chapter 12
01:32:31.712: :Chapter 13



Скриншоты:
[+] Всего файлов в раздаче - 1:
Lyupen.III.Pervyiy.2019.BluRay.1080p.ELEKTRI4KA.UNIONGANG.mkv7.65 GB

Похожие раздачи по запросу - люпен:
2021-01-12 U Люпен / Lupin [S01] (2021) WEB-DLRip 1080p | HDrezka Studio 13.55 GB ↑ 68 ↓ 40
2021-01-09 U Люпен / Lupin [S01] (2021) WEBRip 720p | IdeaFilm 6.16 GB ↑ 52 ↓ 52
2021-01-09 U Люпен / Lupin [S01] (2021) WEBRip 1080p | IdeaFilm 11.02 GB ↑ 84 ↓ 55
2021-01-09 U Люпен / Lupin [S01] (2021) WEBRip | IdeaFilm 3.11 GB ↑ 85 ↓ 52
2020-12-13 U Люпен III: Первый / Lupin III: The First (2019) BDRip от MegaPeer | iTunes 1.42 GB ↑ 161 ↓ 35

Отзывы
Зарегистрируйтесь чтобы добавить комментарий.
Загрузите программу
  uTorrent.exe
Обратная связь
Copyleft ©