↑↓torrent.by
Поиск
Логин: Регистрация
Пароль: Восстановить пароль

Полузащитник [01-02 из 02] (2018) WEBRip от Files-x

Скачать poluzaschitnik-01-02-iz-2018-webrip-ot-files-x.torrent
U Магнитная ссылка Размер: 1.09 GB Раздают: 151 Качают: 47 Добавлен: 2020-12-16 18:04:07
Полузащитник [01-02 из 02] (2018) WEBRip от Files-x

Оригинальное название: Полузащитник
Год выхода: 2018
Жанр: Иронический детектив, криминал, мелодрама
Режиссер: Николай Каптан
В ролях: Прохор Дубравин, Пётр Кислов, Ольга Гришина, Владимир Ращук, Максим Панькив, Кирилл Никитенко, Андрей Свиридов, Марина Куклина, Игорь Рубашкин

О фильме:
История об адвокате-разгильдяе, который всегда опаздывает и постоянно врет, да к тому же еще и всем должен. У него проблемы с полицией, судьями, клиентами и бывшими женами. Но, несмотря на все недостатки, главный герой – одаренный адвокат, которому удается защищать невиновных.

Страна: Россия, Украина
Студия: PRO TV  PRODUCTION, ООО Кинокомпания "Виктория-Универсал Продакшн"
Продолжительность: 2 х ~ 00:43:20
Перевод: Не требуется

Файл
Кодек: XviD
Качество: WEBRip
Видео: XviD, ~ 1616 Кбит/с, 720x400, 25 кадр/с
Звук: AC3, 2 ch, 192 Кбит/с

Релиз:


[+] MediaInfo

General
Complete name                    : C:01.Полузащитник.s01.E01.(2018).WEBRip.by.Nicodem.Files-x.avi
Format                           : AVI
Format/Info                      : Audio Video Interleave
File size                        : 550 MiB
Duration                         : 42mn 17s
Overall bit rate                 : 1 818 Kbps
Writing application              : VirtualDubMod 1.5.10.3 | www.virtualdub-fr.org || (build 2550/release)
Writing library                  : VirtualDubMod build 2550/release

Video
ID                               : 0
Format                           : MPEG-4 Visual
Format profile                   : Advanced Simple@L5
Format settings, BVOP            : 1
Format settings, QPel            : No
Format settings, GMC             : No warppoints
Format settings, Matrix          : Custom
Codec ID                         : XVID
Codec ID/Hint                    : XviD
Duration                         : 42mn 17s
Bit rate                         : 1 616 Kbps
Width                            : 720 pixels
Height                           : 400 pixels
Display aspect ratio             : 16:9
Frame rate                       : 25.000 fps
Color space                      : YUV
Chroma subsampling               : 4:2:0
Bit depth                        : 8 bits
Scan type                        : Progressive
Compression mode                 : Lossy
Bits/(Pixel*Frame)               : 0.225
Stream size                      : 489 MiB (89%)
Writing library                  : XviD 73

Audio
ID                               : 1
Format                           : AC-3
Format/Info                      : Audio Coding 3
Mode extension                   : CM (complete main)
Codec ID                         : 2000
Duration                         : 42mn 17s
Bit rate mode                    : Constant
Bit rate                         : 192 Kbps
Channel(s)                       : 2 channels
Channel positions                : Front: L R
Sampling rate                    : 48.0 KHz
Bit depth                        : 16 bits
Compression mode                 : Lossy
Stream size                      : 58.1 MiB (11%)
Alignment                        : Split accross interleaves
Interleave, duration             : 40 ms (1.00 video frame)
Interleave, preload duration     : 500 ms



[+] ИНТЕРЕСНО

"Прототипом главного героя стал начинающий юрист, который пришел к нам работать на киностудию, – рассказывает продюсер Артем Приходько. – Эпикуреец, любитель экстремальных видов спорта, прожигатель жизни – вот такая была репутация у молодого специалиста. Юриспруденция его не привлекала и навевала на него лишь тоску. Но, втянувшись в съемочный процесс, он начал лихо решать проблемные ситуации в киноиндустрии и помогать простым сотрудникам. Даже кропотливая работа над составлением контрактов превратилась для него в увлекательное занятие. Подобная трансформация происходит и с главным героем сериала "Полузащитник". Он начинает понимать, что ему интереснее жить, когда он расследует преступления, анализирует мотивы участников событий и защищает людей".

Главного героя в сериале "Полузащитник" сыграл популярный актер Прохор Дубравин. Кстати, специально для съемок в этой картине Прохор научился экстремальному вождению лимузина.

"Это были очень добрые и смешные съемки, – делится впечатлениями актер. – Каждый день на площадке был наполнен юмором и позитивом. Надеюсь, такие же эмоции вызовет этот фильм у зрителей. Смешные ситуации в сюжете и огромный капризный лимузин, в котором почти живет молодой адвокат, этому поспособствуют. Лирическую нотку картине добавила тонкая и нежная Оля Гришина, героиня которой прямо влияет на физическое и душевное состояние моего персонажа. Если зрителю во время и после просмотра "Полузащитника" будет так же хорошо, как и всем нам во время работы над фильмом, значит, цель достигнута!"

Съемки иронического детектива "Полузащитник" проходили в Киеве. В сериале зрители увидят не только комичные ситуации, но и головокружительные погони, драки и трюки. А актеров на съемочной площадке подвергали нелегким испытаниям: обливали ледяной водой, топили в грязи, поджигали и заставляли прыгать с шестого этажа. Конечно же, все это во имя искусства – во время съемок никто не пострадал!



Скриншоты:
[+] Всего файлов в раздаче - 2:
01.Полузащитник.s01.E01.(2018).WEBRip.by.Nicodem.Files-x.avi550.10 MB
02.Полузащитник.s01.E02.(2018).WEBRip.by.Nicodem.Files-x.avi570.21 MB

Отзывы
Зарегистрируйтесь чтобы добавить комментарий.
Загрузите программу
  uTorrent.exe
Обратная связь
Copyleft ©