↑↓torrent.by
Поиск
Логин: Регистрация
Пароль: Восстановить пароль

Кольцо Намея / Nameja gredzens / The Pagan King (2018) BDRip 1080p | P2

Скачать kolco-nameya-nameja-gredzens-the-pagan-king-2018-bdrip-1080p-p2.torrent
U Магнитная ссылка Размер: 9.81 GB Раздают: 84 Качают: 101 Добавлен: 2020-12-16 18:05:01
Кольцо Намея / Nameja gredzens / The Pagan King (2018) BDRip 1080p | P2

Название: Кольцо Намея
Оригинальное название: Nameja gredzens / The Pagan King
Год выхода: 2018
Жанр: Боевик, драма, история
Режиссер: Айгарс Грауба
В ролях: Эдвин Эндре, Джеймс Блур, Дайнис Грубе, Гинтс Андзанс, Джеймс Александер, Майя Озолиня, Томс Ауниньш, Кристофер Дэйн, Иева Александрова-Элконе, Айсте Диржюте, Эгонс Домбровкис, Лаурис Дзелзитис

О фильме:
XIII век, эпоха крестовых походов. Богатые земли балтских языческих племён находятся в сфере интересов Рима, особенно Земгале, которая контролирует значимые торговые пути и никогда никому не подчинялась. Папа Римский поручает своему бастарду Максу, который стал известен благодаря своей жестокости, отправиться на север и подчинить свободолюбивых земгалов,, которые посмели отвергнуть христианство. Когда убивают Земгальского короля, кольцо власти переходит к молодому Намею. Смелость Намея заменяет ему отсутствие опыта, и он готов вести за собой народ. Вдохновленный первыми победами, Намей начинает свой нелёгкий путь...

Страна: Великобритания, Латвия
Студия: Cinevilla Studio, Platforma Filma
Продолжительность: 01:50:07
Перевод: Профессиональный двухголосый | SDI Media

Файл
Кодек: x.264
Качество: BDRip 1080p
Видео: MPEG-4 AVC, 11.9 Mбит/с, 1920x802 , 25.000 кадр/с
Аудио #1: Русский (АС3, 2 ch, 192 Кбит/с, 48.0 KHz) Профессиональный (двухголосый, закадровый) SDI Media
Аудио #2: Английский (АС3, 6 ch, 640 Кбит/с, 48.0 KHz)
Субтитры: английские
► Без Рекламы!


[+] MediaInfo
Источник: The.Pagan.King.2018.1080p.BluRay.x264-HANDJOB
General
Unique ID                      : 174476916888511309967729100431686681551 (0x834308298CAA7C1CBEB5B8ABED20C3CF)
Complete name                  : The.Pagan.King.2018.BDRip.1080p.mkv
Format                         : Matroska
Format version                 : Version 4
File size                      : 9.81 GiB
Duration                       : 1 h 50 min
Overall bit rate               : 12.8 Mb/s
Encoded date                   : UTC 2020-12-14 16:54:03
Writing application            : mkvmerge v7.1.0 ('Good Love') 64bit built on Jul 27 2014 13:06:55
Writing library                : libebml v1.3.0 + libmatroska v1.4.1

Video
ID                             : 1
Format                         : AVC
Format/Info                    : Advanced Video Codec
Format profile                 : High@L4.1
Format settings                : CABAC / 5 Ref Frames
Format settings, CABAC         : Yes
Format settings, Reference fra : 5 frames
Codec ID                       : V_MPEG4/ISO/AVC
Duration                       : 1 h 50 min
Bit rate                       : 11.9 Mb/s
Width                          : 1 920 pixels
Height                         : 802 pixels
Display aspect ratio           : 2.40:1
Frame rate mode                : Constant
Frame rate                     : 25.000 FPS
Color space                    : YUV
Chroma subsampling             : 4:2:0
Bit depth                      : 8 bits
Scan type                      : Progressive
Bits/(Pixel*Frame)             : 0.310
Stream size                    : 9.17 GiB (93%)
Writing library                : x264 core 148
Encoding settings              : cabac=1 / ref=5 / deblock=1:-3:-3 / analyse=0x3:0x133 / me=umh / subme=10 / psy=1 / psy_rd=1.00:0.00 / mixed_ref=1 / me_range=32 / chroma_me=1 / trellis=2 / 8x8dct=1 / cqm=0 / deadzone=21,11 / fast_pskip=0 / chroma_qp_offset=-2 / threads=12 / lookahead_threads=3 / sliced_threads=0 / nr=0 / decimate=0 / interlaced=0 / bluray_compat=0 / constrained_intra=0 / bframes=16 / b_pyramid=2 / b_adapt=2 / b_bias=0 / direct=3 / weightb=1 / open_gop=0 / weightp=2 / keyint=250 / keyint_min=25 / scenecut=40 / intra_refresh=0 / rc_lookahead=60 / rc=crf / mbtree=0 / crf=16.5 / qcomp=0.60 / qpmin=0 / qpmax=69 / qpstep=4 / vbv_maxrate=62500 / vbv_bufsize=78125 / crf_max=0.0 / nal_hrd=none / filler=0 / ip_ratio=1.40 / pb_ratio=1.30 / aq=2:1.00
Language                       : English
Default                        : Yes
Forced                         : No
Color range                    : Limited
Color primaries                : BT.709
Transfer characteristics       : BT.709
Matrix coefficients            : BT.709

Audio #1
ID                             : 2
Format                         : AC-3
Format/Info                    : Audio Coding 3
Commercial name                : Dolby Digital
Codec ID                       : A_AC3
Duration                       : 1 h 50 min
Bit rate mode                  : Constant
Bit rate                       : 192 kb/s
Channel(s)                     : 2 channels
Channel layout                 : L R
Sampling rate                  : 48.0 kHz
Frame rate                     : 31.250 FPS (1536 SPF)
Compression mode               : Lossy
Stream size                    : 151 MiB (2%)
Title                          : DVO | SDI Media
Language                       : Russian
Service kind                   : Complete Main
Default                        : Yes
Forced                         : No

Audio #2
ID                             : 3
Format                         : AC-3
Format/Info                    : Audio Coding 3
Commercial name                : Dolby Digital
Codec ID                       : A_AC3
Duration                       : 1 h 50 min
Bit rate mode                  : Constant
Bit rate                       : 640 kb/s
Channel(s)                     : 6 channels
Channel layout                 : L R C LFE Ls Rs
Sampling rate                  : 48.0 kHz
Frame rate                     : 31.250 FPS (1536 SPF)
Compression mode               : Lossy
Stream size                    : 504 MiB (5%)
Language                       : English
Service kind                   : Complete Main
Default                        : No
Forced                         : No

Text
ID                             : 4
Format                         : UTF-8
Codec ID                       : S_TEXT/UTF8
Codec ID/Info                  : UTF-8 Plain Text
Duration                       : 1 h 44 min
Bit rate                       : 39 b/s
Count of elements              : 889
Stream size                    : 30.2 KiB (0%)
Language                       : English
Default                        : No
Forced                         : No

Menu
00:00:00.000                   : en:Chapter 1
00:10:22.040                   : en:Chapter 2
00:19:21.440                   : en:Chapter 3
00:27:29.680                   : en:Chapter 4
00:36:26.480                   : en:Chapter 5
00:45:40.120                   : en:Chapter 6
00:54:46.920                   : en:Chapter 7
01:03:04.200                   : en:Chapter 8
01:11:25.360                   : en:Chapter 9
01:21:44.080                   : en:Chapter 10
01:30:27.040                   : en:Chapter 11
01:39:19.080                   : en:Chapter 12



Скриншоты:
[+] Всего файлов в раздаче - 1:
The.Pagan.King.2018.BDRip.1080p.mkv9.81 GB

Похожие раздачи по запросу - кольцо:
2021-01-10 U Золотое кольцо. Путешествие (2017) DVB 999.68 MB ↑ 61 ↓ 4
2020-02-29 U Золотое кольцо (2020) WEB-DLRip от Files-x | iTunes 1.37 GB ↑ 476 ↓ 40
2019-11-17 U Кольцо Намея / Nameja gredzens / The Pagan King (2018) WEB-DLRip | SDI Media 1.47 GB ↑ 469 ↓ 69

Отзывы
Зарегистрируйтесь чтобы добавить комментарий.
Загрузите программу
  uTorrent.exe
Обратная связь
Copyleft ©