↑↓torrent.by
Поиск
Логин: Регистрация
Пароль: Восстановить пароль

Гренландия / Greenland (2020) BDRip 1080p от селезень | FRA Transfer | iTunes

Скачать grenlandiya-greenland-2020-bdrip-1080p-ot-selezen-fra-transfer-itunes.torrent
U Магнитная ссылка Размер: 10.71 GB Раздают: 101 Качают: 83 Добавлен: 2020-12-18 04:59:31
Гренландия / Greenland (2020) BDRip 1080p от селезень | FRA Transfer | iTunes

Название: Гренландия
Оригинальное название: Greenland
Год выхода: 2020
Жанр: Боевик
Режиссер: Рик Роман Во
В ролях: Джерард Батлер, Морена Баккарин, Роджер Дэйл Флойд, Скотт Гленн, Рендал Гонсалес, Рик Паскуалоне, Скотт Пойтресс, Клер Бронсон, Мэдисон Джонсон, Гари Викс

О фильме: Во всех СМИ твердят о приближающейся к Земле комете, а инженера-строителя Джона Гэррити больше волнует, как сохранить разваливающийся брак. Сегодня у них намечена вечеринка с соседями, и, отправившись в супермаркет за продуктами, Джон внезапно получает президентское сообщение, что он и его семья выбраны для спасения в секретном бункере. Поначалу он не придаёт этому значения, но вскоре ударная волна от столкновения первых частей кометы с Землёй докатывается до их тихого пригорода, а по всем каналам начинают транслировать ужасающие кадры разрушений. Сев с женой и сыном в машину под растерянными взглядами соседей, Джон спешит в аэропорт, где производится посадка получивших сообщения в грузовые самолёты.

Страна: Великобритания, США
Студия: G-BASE, Anton, Riverstone Pictures
Продолжительность: 01:59:35
Перевод: Дублированный | iTunes

Качество: BDRip 1080p
Видео: MPEG-4 AVC, 1920x804, 11.8 Mbit/s, 23.976 fps
Аудио #01: 48 kHz, AC3, 5.1, 384 Kbps | iTunes | RUS |
Аудио #02: 48 kHz, AC3, 5.1, 640 Kbps | Оригинал | ENG |
Субтитры: русские (Forced), английские

Релиз: Присоединяйся к:


[+] MI
General
Unique ID                   : 25243845214291274319765292338608220730 (0x12FDC9A9645F45C00DBDEB44D7EE2A3A)
Complete name               : E:VideoFirstGreenland.2020.BDRip.1080p.seleZen.mkv
Format                      : Matroska
Format version              : Version 4
File size                   : 10.7 GiB
Duration                    : 1 h 59 min
Overall bit rate            : 12.8 Mb/s
Movie name                  : Greenland 2020 from seleZen
Encoded date                : UTC 2020-12-17 19:46:22
Writing application         : mkvmerge v40.0.0 ('Old Town Road + Pony') 64-bit
Writing library             : libebml v1.3.9 + libmatroska v1.5.2

Video
ID                          : 1
Format                      : AVC
Format/Info                 : Advanced Video Codec
Format profile              : High@L4.1
Format settings             : CABAC / 5 Ref Frames
Format settings, CABAC      : Yes
Format settings, Reference  : 5 frames
Codec ID                    : V_MPEG4/ISO/AVC
Duration                    : 1 h 59 min
Bit rate                    : 11.8 Mb/s
Width                       : 1 920 pixels
Height                      : 804 pixels
Display aspect ratio        : 2.40:1
Frame rate mode             : Constant
Frame rate                  : 23.976 (24000/1001) FPS
Color space                 : YUV
Chroma subsampling          : 4:2:0
Bit depth                   : 8 bits
Scan type                   : Progressive
Bits/(Pixel*Frame)          : 0.319
Stream size                 : 9.85 GiB (92%)
Title                       : Encoded by seleZen
Writing library             : x264 core 161 -from seleZen
Encoding settings           : cabac=1 / ref=5 / deblock=1:-2:-2 / analyse=0x3:0x113 / me=umh / subme=10 / psy=1 / psy_rd=1.03:0.04 / mixed_ref=1 / me_range=32 / chroma_me=1 / trellis=2 / 8x8dct=1 / cqm=0 / deadzone=21,11 / fast_pskip=0 / chroma_qp_offset=-3 / threads=24 / lookahead_threads=4 / sliced_threads=0 / nr=0 / decimate=0 / interlaced=0 / bluray_compat=0 / constrained_intra=0 / bframes=9 / b_pyramid=2 / b_adapt=2 / b_bias=0 / direct=3 / weightb=1 / open_gop=0 / weightp=2 / keyint=240 / keyint_min=23 / scenecut=40 / intra_refresh=0 / rc_lookahead=40 / rc=2pass / mbtree=0 / bitrate=11800 / ratetol=1.0 / qcomp=0.60 / qpmin=0 / qpmax=51 / qpstep=4 / cplxblur=20.0 / qblur=0.5 / vbv_maxrate=50000 / vbv_bufsize=62000 / nal_hrd=none / filler=0 / ip_ratio=1.40 / pb_ratio=1.30 / aq=3:0.80
Language                    : French
Default                     : Yes
Forced                      : No

Audio #1
ID                          : 2
Format                      : AC-3
Format/Info                 : Audio Coding 3
Commercial name             : Dolby Digital
Codec ID                    : A_AC3
Duration                    : 1 h 59 min
Bit rate mode               : Constant
Bit rate                    : 384 kb/s
Channel(s)                  : 6 channels
Channel layout              : L R C LFE Ls Rs
Sampling rate               : 48.0 kHz
Frame rate                  : 31.250 FPS (1536 SPF)
Compression mode            : Lossy
Stream size                 : 328 MiB (3%)
Title                       : Dub [iTunes]
Language                    : Russian
Service kind                : Complete Main
Default                     : Yes
Forced                      : Yes

Audio #2
ID                          : 3
Format                      : AC-3
Format/Info                 : Audio Coding 3
Commercial name             : Dolby Digital
Codec ID                    : A_AC3
Duration                    : 1 h 59 min
Bit rate mode               : Constant
Bit rate                    : 640 kb/s
Channel(s)                  : 6 channels
Channel layout              : L R C LFE Ls Rs
Sampling rate               : 48.0 kHz
Frame rate                  : 31.250 FPS (1536 SPF)
Compression mode            : Lossy
Stream size                 : 547 MiB (5%)
Title                       : Original
Language                    : English
Service kind                : Complete Main
Default                     : No
Forced                      : No

Text #1
ID                          : 4
Format                      : UTF-8
Codec ID                    : S_TEXT/UTF8
Codec ID/Info               : UTF-8 Plain Text
Duration                    : 1 h 33 min
Bit rate                    : 2 b/s
Count of elements           : 25
Stream size                 : 1.43 KiB (0%)
Title                       : Forced
Language                    : Russian
Default                     : Yes
Forced                      : Yes

Text #2
ID                          : 5
Format                      : UTF-8
Codec ID                    : S_TEXT/UTF8
Codec ID/Info               : UTF-8 Plain Text
Duration                    : 1 h 52 min
Bit rate                    : 58 b/s
Count of elements           : 1522
Stream size                 : 47.9 KiB (0%)
Title                       : Full
Language                    : English
Default                     : No
Forced                      : No

Menu
00:00:00.000                : :Глава 01
00:10:59.200                : :Глава 02
00:22:35.521                : :Глава 03
00:32:00.001                : :Глава 04
00:42:23.332                : :Глава 05
00:53:30.290                : :Глава 06
01:04:47.509                : :Глава 07
01:11:31.662                : :Глава 08
01:22:15.264                : :Глава 09
01:34:13.022                : :Глава 10
01:42:04.493                : :Глава 11
01:54:06.673                : :Глава 12



Скриншоты:
[+] Всего файлов в раздаче - 1:
Greenland.2020.BDRip.1080p.seleZen.mkv10.71 GB

Показать еще раздачи по запросу гренландия:
2021-02-10 U Гренландия / Greenland (2020) BDRip-AVC от OlLanDGroup | Лицензия 1.88 GB ↑ 29 ↓ 11
2021-02-09 U Гренландия / Greenland (2020) HDRip-AVC от MediaBit | FRA Transfer | Лицензия 2.37 GB ↑ 45 ↓ 15
2021-02-09 U Гренландия / Greenland (2020) BDRip от Twister & ExKinoRay | FRA Transfer | Лицензия 1.46 GB ↑ 35 ↓ 6
2021-02-09 U Гренландия / Greenland (2020) UHD BDRemux 2160p от селезень | 4K | HDR | Лицензия 57.71 GB ↑ 34 ↓ 15
2021-02-08 U Гренландия / Greenland (2020) BDRip 720p от селезень | FRA Transfer | Лицензия 7.66 GB ↑ 29 ↓ 23
2021-02-08 U Гренландия / Greenland (2020) BDRip 1080p от селезень | FRA Transfer | Лицензия 12.50 GB ↑ 76 ↓ 73
2021-02-08 U Гренландия / Greenland (2020) BDRip от MegaPeer | NOR Transfer | Лицензия 2.18 GB ↑ 42 ↓ 13

Отзывы
Зарегистрируйтесь чтобы добавить комментарий.
Загрузите программу
  uTorrent.exe
Обратная связь
Copyleft ©