↑↓torrent.by
Поиск
Логин: Регистрация
Пароль: Восстановить пароль

Гренландия / Greenland (2020) BDRip-AVC от ExKinoRay | iTunes

Скачать grenlandiya-greenland-2020-bdrip-avc-ot-exkinoray-itunes.torrent
U Магнитная ссылка Размер: 2.54 GB Раздают: 113 Качают: 41 Добавлен: 2020-12-18 10:45:02
Гренландия / Greenland (2020) BDRip-AVC от ExKinoRay | iTunes

Название: Гренландия
Оригинальное название: Greenland
Год выхода: 2020
Жанр:  боевик
Режиссер: Рик Роман Во / Ric Roman Waugh
В ролях: Джерард Батлер, Морена Баккарин, Роджер Дэйл Флойд, Скотт Гленн, Рендал Гонсалес, Рик Паскуалоне, Никола Ламбо, Алан Петрушевски, Скотт Пойтресс, Клер Бронсон, Гари Викс, Трэйси Боннер, Меррин Данги

О фильме:
Огромная комета мчится к Земле и угрожает уничтожить планету. Конец света кажется неизбежным. Единственное безопасное место – бункер в далекой Гренландии. Джон с семьёй отправляется в опасное путешествие, которое осложняется не только разрушительными последствиями приближения кометы, но и паникой обезумевших людей.

Страна: США, Великобритания
Продолжительность: 01:59:30
Перевод: Профессиональный (полное дублирование) | iTunes

Спасибо селезень за iTunes!

Формат: MKV
Качество: BDRip-AVC
Видео: MPEG-4 AVC, 1024x428 (2.40:1), 23.976 fps, 2210 Kbps, 0.210 bit/pixel
Аудио #01: 48 kHz, AC3, 5.1, 384 Kbps | RUS |
Аудио #02: 48 kHz, AC3, 5.1, 448 Kbps | Оригинал | ENG |
Субтитры: Русские (форс.), английские

Релиз:

Автор релиза:


[+] МИ
General
Unique ID                                : 224523551814358534496414447246091782608 (0xA8E9A9C53E4E8A6FA2D974FC5AF089D0)
Complete name                            : G:Grenlandiya.2020.BDR.AVC.ExKinoRay (1).mkv
Format                                   : Matroska
Format version                           : Version 2
File size                                : 2.54 GiB
Duration                                 : 1 h 59 min
Overall bit rate                         : 3 042 kb/s
Movie name                               : Grenlandiya 2020 from ExKinoRay
Encoded date                             : UTC 2020-12-17 21:10:24
Writing application                      : mkvmerge v5.6.0 ('Kenya Kane') built on May 27 2012 16:44:04
Writing library                          : libebml v1.2.3 + libmatroska v1.3.0

Video
ID                                       : 1
Format                                   : AVC
Format/Info                              : Advanced Video Codec
Format profile                           : High@L4.1
Format settings, CABAC                   : Yes
Format settings, ReFrames                : 12 frames
Codec ID                                 : V_MPEG4/ISO/AVC
Duration                                 : 1 h 59 min
Bit rate                                 : 2 210 kb/s
Width                                    : 1 024 pixels
Height                                   : 428 pixels
Display aspect ratio                     : 2.40:1
Frame rate mode                          : Constant
Frame rate                               : 23.976 (24000/1001) FPS
Original frame rate                      : 23.976 (23976/1000) FPS
Color space                              : YUV
Chroma subsampling                       : 4:2:0
Bit depth                                : 8 bits
Scan type                                : Progressive
Bits/(Pixel*Frame)                       : 0.210
Stream size                              : 1.79 GiB (71%)
Title                                    : Enigma
Writing library                          : x264 core 161 r3027 @Enigma
Encoding settings                        : cabac=1 / ref=12 / deblock=1:-2:-2 / analyse=0x3:0x113 / me=umh / subme=10 / psy=1 / psy_rd=1.05:0.00 / mixed_ref=1 / me_range=32 / chroma_me=1 / trellis=2 / 8x8dct=1 / cqm=0 / deadzone=21,11 / fast_pskip=0 / chroma_qp_offset=-2 / threads=12 / lookahead_threads=3 / sliced_threads=0 / nr=0 / decimate=0 / interlaced=0 / bluray_compat=0 / constrained_intra=0 / bframes=10 / b_pyramid=2 / b_adapt=2 / b_bias=0 / direct=3 / weightb=1 / open_gop=0 / weightp=2 / keyint=240 / keyint_min=23 / scenecut=40 / intra_refresh=0 / rc=2pass / mbtree=0 / bitrate=2210 / ratetol=1.0 / qcomp=0.60 / qpmin=0 / qpmax=51 / qpstep=4 / cplxblur=20.0 / qblur=0.5 / ip_ratio=1.40 / pb_ratio=1.30 / aq=2:0.80
Default                                  : Yes
Forced                                   : No
Color range                              : Limited
Color primaries                          : BT.709
Transfer characteristics                 : BT.709
Matrix coefficients                      : BT.709

Audio #1
ID                                       : 2
Format                                   : AC-3
Format/Info                              : Audio Coding 3
Mode extension                           : CM (complete main)
Format settings, Endianness              : Big
Codec ID                                 : A_AC3
Duration                                 : 1 h 59 min
Bit rate mode                            : Constant
Bit rate                                 : 384 kb/s
Channel(s)                               : 6 channels
Channel positions                        : Front: L C R, Side: L R, LFE
Sampling rate                            : 48.0 kHz
Frame rate                               : 31.250 FPS (1536 spf)
Compression mode                         : Lossy
Stream size                              : 328 MiB (13%)
Title                                    : iTunes
Language                                 : Russian
Default                                  : Yes
Forced                                   : No

Audio #2
ID                                       : 3
Format                                   : AC-3
Format/Info                              : Audio Coding 3
Mode extension                           : CM (complete main)
Format settings, Endianness              : Big
Codec ID                                 : A_AC3
Duration                                 : 1 h 59 min
Bit rate mode                            : Constant
Bit rate                                 : 448 kb/s
Channel(s)                               : 6 channels
Channel positions                        : Front: L C R, Side: L R, LFE
Sampling rate                            : 48.0 kHz
Frame rate                               : 31.250 FPS (1536 spf)
Compression mode                         : Lossy
Stream size                              : 383 MiB (15%)
Language                                 : English
Default                                  : No
Forced                                   : No

Text #1
ID                                       : 4
Format                                   : UTF-8
Codec ID                                 : S_TEXT/UTF8
Codec ID/Info                            : UTF-8 Plain Text
Title                                    : Forced
Language                                 : Russian
Default                                  : Yes
Forced                                   : No

Text #2
ID                                       : 5
Format                                   : UTF-8
Codec ID                                 : S_TEXT/UTF8
Codec ID/Info                            : UTF-8 Plain Text
Title                                    : Full
Language                                 : English
Default                                  : No
Forced                                   : No

Text #3
ID                                       : 6
Format                                   : UTF-8
Codec ID                                 : S_TEXT/UTF8
Codec ID/Info                            : UTF-8 Plain Text
Title                                    : SDH
Language                                 : English
Default                                  : No
Forced                                   : No

Menu
00:00:00.000                             : en:Chapter 01
00:14:35.583                             : en:Chapter 02
00:30:41.840                             : en:Chapter 03
00:45:21.176                             : en:Chapter 04
00:59:22.850                             : en:Chapter 05
01:14:57.159                             : en:Chapter 06
01:30:32.635                             : en:Chapter 07
01:45:14.433                             : en:Chapter 08




Скриншоты:
[+] Всего файлов в раздаче - 1:
Grenlandiya.2020.BDR.AVC.ExKinoRay (1).mkv2.54 GB

Показать еще раздачи по запросу гренландия:
2021-02-10 U Гренландия / Greenland (2020) BDRip-AVC от OlLanDGroup | Лицензия 1.88 GB ↑ 29 ↓ 11
2021-02-09 U Гренландия / Greenland (2020) HDRip-AVC от MediaBit | FRA Transfer | Лицензия 2.37 GB ↑ 45 ↓ 15
2021-02-09 U Гренландия / Greenland (2020) BDRip от Twister & ExKinoRay | FRA Transfer | Лицензия 1.46 GB ↑ 35 ↓ 6
2021-02-09 U Гренландия / Greenland (2020) UHD BDRemux 2160p от селезень | 4K | HDR | Лицензия 57.71 GB ↑ 34 ↓ 15
2021-02-08 U Гренландия / Greenland (2020) BDRip 720p от селезень | FRA Transfer | Лицензия 7.66 GB ↑ 29 ↓ 23
2021-02-08 U Гренландия / Greenland (2020) BDRip 1080p от селезень | FRA Transfer | Лицензия 12.50 GB ↑ 76 ↓ 73
2021-02-08 U Гренландия / Greenland (2020) BDRip от MegaPeer | NOR Transfer | Лицензия 2.18 GB ↑ 42 ↓ 13

Отзывы
Зарегистрируйтесь чтобы добавить комментарий.
Загрузите программу
  uTorrent.exe
Обратная связь
Copyleft ©