↑↓torrent.by
Поиск
Логин: Регистрация
Пароль: Восстановить пароль

Гренландия / Greenland (2020) UHD BDRemux 2160p от селезень | 4K | HDR | iTunes

Скачать grenlandiya-greenland-2020-uhd-bdremux-2160p-ot-selezen-4k-hdr-itunes.torrent
U Магнитная ссылка Размер: 55.92 GB Раздают: 80 Качают: 222 Добавлен: 2020-12-18 13:26:53
Гренландия / Greenland (2020) UHD BDRemux 2160p от селезень | 4K | HDR | iTunes

Название: Гренландия
Оригинальное название: Greenland
Год выхода: 2020
Жанр: Боевик
Режиссер: Рик Роман Во
В ролях: Джерард Батлер, Морена Баккарин, Роджер Дэйл Флойд, Скотт Гленн, Рендал Гонсалес, Рик Паскуалоне, Скотт Пойтресс, Клер Бронсон, Мэдисон Джонсон, Гари Викс

О фильме: Во всех СМИ твердят о приближающейся к Земле комете, а инженера-строителя Джона Гэррити больше волнует, как сохранить разваливающийся брак. Сегодня у них намечена вечеринка с соседями, и, отправившись в супермаркет за продуктами, Джон внезапно получает президентское сообщение, что он и его семья выбраны для спасения в секретном бункере. Поначалу он не придаёт этому значения, но вскоре ударная волна от столкновения первых частей кометы с Землёй докатывается до их тихого пригорода, а по всем каналам начинают транслировать ужасающие кадры разрушений. Сев с женой и сыном в машину под растерянными взглядами соседей, Джон спешит в аэропорт, где производится посадка получивших сообщения в грузовые самолёты.

Страна: Великобритания, США
Студия: G-BASE, Anton, Riverstone Pictures
Продолжительность: 01:59:32
Перевод: Дублированный | iTunes

Качество: BDRemux 2160p
Видео: 3840x2160 at 23.976 fps, MPEG-H HEVC HDR Video, ~ 61900 kbps avg
Аудио #01: 48 kHz, AC3, 5.1, 384 Kbps | iTunes | RUS |
Аудио #02: 48 kHz, TrueHD, 5.1, 3959 Kbps | Оригинал | ENG |
Аудио #03: 48 kHz, AC3, 5.1, 640 Kbps | Оригинал | ENG |
Субтитры: Русские (Forced), английские

Релиз: Присоединяйся к:


[+] MI
General
Unique ID                   : 215472636339213707074708777094219375746 (0xA21A852F3F1E909CA071A39C71A92482)
Complete name               : E:VideoFirstGreenland.2020.BDREMUX.2160p.HDR.seleZen.mkv
Format                      : Matroska
Format version              : Version 4
File size                   : 55.9 GiB
Duration                    : 1 h 59 min
Overall bit rate mode       : Variable
Overall bit rate            : 67.0 Mb/s
Movie name                  : Greenland 2020 4K from seleZen
Encoded date                : UTC 2020-12-17 20:17:58
Writing application         : mkvmerge v7.3.0 ('Nouages') 32bit built on Oct 22 2014 18:44:01
Writing library             : libebml v1.3.0 + libmatroska v1.4.1

Video
ID                          : 1
Format                      : HEVC
Format/Info                 : High Efficiency Video Coding
Format profile              : Main 10@L5.1@High
HDR format                  : SMPTE ST 2086, HDR10 compatible
Codec ID                    : V_MPEGH/ISO/HEVC
Duration                    : 1 h 59 min
Bit rate                    : 61.9 Mb/s
Width                       : 3 840 pixels
Height                      : 2 160 pixels
Display aspect ratio        : 16:9
Frame rate mode             : Constant
Frame rate                  : 23.976 (24000/1001) FPS
Standard                    : Component
Color space                 : YUV
Chroma subsampling          : 4:2:0 (Type 2)
Bit depth                   : 10 bits
Bits/(Pixel*Frame)          : 0.311
Stream size                 : 51.7 GiB (92%)
Language                    : English
Default                     : Yes
Forced                      : No
Color range                 : Limited
Color primaries             : BT.2020
Transfer characteristics    : PQ
Matrix coefficients         : BT.2020 non-constant
Mastering display color pri : Display P3
Mastering display luminance : min: 0.0000 cd/m2, max: 1000 cd/m2
Maximum Content Light Level : 1000 cd/m2
Maximum Frame-Average Light : 638 cd/m2

Audio #1
ID                          : 2
Format                      : AC-3
Format/Info                 : Audio Coding 3
Commercial name             : Dolby Digital
Codec ID                    : A_AC3
Duration                    : 1 h 59 min
Bit rate mode               : Constant
Bit rate                    : 384 kb/s
Channel(s)                  : 6 channels
Channel layout              : L R C LFE Ls Rs
Sampling rate               : 48.0 kHz
Frame rate                  : 31.250 FPS (1536 SPF)
Compression mode            : Lossy
Stream size                 : 328 MiB (1%)
Title                       : iTunes
Language                    : Russian
Service kind                : Complete Main
Default                     : Yes
Forced                      : Yes

Audio #2
ID                          : 3
Format                      : MLP FBA 16-ch
Format/Info                 : Meridian Lossless Packing FBA with 16-channel presentation
Commercial name             : Dolby TrueHD with Dolby Atmos
Codec ID                    : A_TRUEHD
Duration                    : 1 h 59 min
Bit rate mode               : Variable
Bit rate                    : 3 960 kb/s
Maximum bit rate            : 7 086 kb/s
Channel(s)                  : 8 channels
Channel layout              : L R C LFE Ls Rs Lb Rb
Sampling rate               : 48.0 kHz
Frame rate                  : 1 200.000 FPS (40 SPF)
Compression mode            : Lossless
Delay relative to video     : 1 ms
Stream size                 : 3.31 GiB (6%)
Title                       : Original
Language                    : English
Default                     : No
Forced                      : No
Number of dynamic objects   : 11
Bed channel count           : 1 channel
Bed channel configuration   : LFE

Audio #3
ID                          : 4
Format                      : AC-3
Format/Info                 : Audio Coding 3
Commercial name             : Dolby Digital
Codec ID                    : A_AC3
Duration                    : 1 h 59 min
Bit rate mode               : Constant
Bit rate                    : 640 kb/s
Channel(s)                  : 6 channels
Channel layout              : L R C LFE Ls Rs
Sampling rate               : 48.0 kHz
Frame rate                  : 31.250 FPS (1536 SPF)
Compression mode            : Lossy
Delay relative to video     : 20 ms
Stream size                 : 547 MiB (1%)
Language                    : English
Service kind                : Complete Main
Default                     : No
Forced                      : No

Text #1
ID                          : 5
Format                      : UTF-8
Codec ID                    : S_TEXT/UTF8
Codec ID/Info               : UTF-8 Plain Text
Duration                    : 1 h 33 min
Bit rate                    : 2 b/s
Count of elements           : 25
Stream size                 : 1.43 KiB (0%)
Title                       : Forced
Language                    : Russian
Default                     : Yes
Forced                      : Yes

Text #2
ID                          : 6
Format                      : UTF-8
Codec ID                    : S_TEXT/UTF8
Codec ID/Info               : UTF-8 Plain Text
Duration                    : 1 h 52 min
Bit rate                    : 58 b/s
Count of elements           : 1522
Stream size                 : 47.9 KiB (0%)
Title                       : Full
Language                    : English
Default                     : No
Forced                      : No

Menu
00:00:00.000                : en:Opening Credits
00:01:00.269                : en:Construction Site
00:02:20.098                : en:An Uncomfortable Return Home
00:05:57.315                : en:Father Son Time
00:08:56.244                : en:Birthday Party Prep
00:10:56.948                : en:Presidential Alert
00:14:07.430                : en:Clark Hits
00:18:50.588                : en:Tough Decisions
00:22:33.269                : en:Driving To The Base
00:26:32.049                : en:Trying To Get On The Plane
00:37:49.434                : en:Chaos At The Base
00:42:21.080                : en:Looters
00:47:30.473                : en:Broken Phone Calls
00:50:09.840                : en:A Ride Up North
00:53:28.038                : en:Ralph Has An Idea
00:56:45.527                : en:Hazards On The Road
01:03:21.089                : en:Lying To Get On The Base
01:06:54.302                : en:Searching For Nathan
01:11:29.410                : en:Reunited
01:19:34.019                : en:Making A Plan
01:22:13.011                : en:Making Amends
01:27:31.913                : en:Driving To Canada
01:34:10.603                : en:Arrival At The Airport
01:41:06.143                : en:Arrival In Greenland
01:46:00.020                : en:Getting To The Bunker | Flashes Of Life
01:50:57.484                : en:The Next Chapter
01:54:03.045                : en:End Credits



Скриншоты:
[+] Всего файлов в раздаче - 1:
Greenland.2020.BDREMUX.2160p.HDR.seleZen.mkv55.92 GB

Показать еще раздачи по запросу гренландия:
2021-02-10 U Гренландия / Greenland (2020) BDRip-AVC от OlLanDGroup | Лицензия 1.88 GB ↑ 29 ↓ 11
2021-02-09 U Гренландия / Greenland (2020) HDRip-AVC от MediaBit | FRA Transfer | Лицензия 2.37 GB ↑ 45 ↓ 15
2021-02-09 U Гренландия / Greenland (2020) BDRip от Twister & ExKinoRay | FRA Transfer | Лицензия 1.46 GB ↑ 35 ↓ 6
2021-02-09 U Гренландия / Greenland (2020) UHD BDRemux 2160p от селезень | 4K | HDR | Лицензия 57.71 GB ↑ 34 ↓ 15
2021-02-08 U Гренландия / Greenland (2020) BDRip 720p от селезень | FRA Transfer | Лицензия 7.66 GB ↑ 29 ↓ 23
2021-02-08 U Гренландия / Greenland (2020) BDRip 1080p от селезень | FRA Transfer | Лицензия 12.50 GB ↑ 76 ↓ 73
2021-02-08 U Гренландия / Greenland (2020) BDRip от MegaPeer | NOR Transfer | Лицензия 2.18 GB ↑ 42 ↓ 13

Отзывы
Зарегистрируйтесь чтобы добавить комментарий.
Загрузите программу
  uTorrent.exe
Обратная связь
Copyleft ©