↑↓torrent.by
Поиск
Логин: Регистрация
Пароль: Восстановить пароль

Ангел / The Angel (2018) WEBRip 720p | HDrezka Studio

Скачать angel-the-2018-webrip-720p-hdrezka-studio.torrent
U Магнитная ссылка Размер: 2.47 GB Раздают: 78 Качают: 16 Добавлен: 2020-12-19 06:13:49
Ангел / The Angel (2018) WEBRip 720p | HDrezka Studio

Название: Ангел
Оригинальное название: The Angel
Год выхода: 2018
Жанр: триллер, драма
Режиссер: Ариэль Вромен
В ролях: Ханна Уэр, Тоби Кеббелл, Марван Кензари, Сапир Азулай, Майса Абд Эльхади, Валид Зуэйтер, Сэссон Габаи, Цахи Галеви, Гай Адлер, Ори Феффер

О фильме:
Фильм расскажет реальную историю высокопоставленного египетского чиновника Ашрафа Марвана. Он был мужем дочери египетского президента Гамаля Абделя Насера, а также специальным советником преемника Навара Анвара Садата. Ашраф Марван стал шпионом от Израиля и заполучил бесценные разведывательные данные, которые помогли политически сформироваться Ближнему Востоку в XX веке. Марван, умерший в 2007 году в загадочных обстоятельствах в Лондоне, является, пожалуй, самым известным шпионом в истории Ближнего Востока и по праву считается национальным героем в Израиле и Египте.

Страна: Израиль, США
Студия: Sumatra Films, TTV Productions Ltd.
Продолжительность: 01:53:10
Перевод: Профессиональный многоголосый, закадровый [HDrezka Studio]

Файл
Кодек: H.264
Качество: WEBRip 720p
Видео: AVC, 1280x688 (1.85:1), 24 fps ~ 2677 Kbps
Звук: AC3, 48 KHz, 6 ch ~ 448 Kb/s
Субтитры: отсутствуют


[+] MI:

Общее
Уникальный идентификатор : 244252602038847130277923182330870085373 (0xB7C1570BF38477308CEB7D8419E1B6FD)
Полное имя : J:wotThe.Angel.2018.WEBRip.720p.HDREZKA.STUDIO.mkv
Формат : Matroska
Версия формата : Version 4
Размер файла : 2,47 Гбайт
Продолжительность : 1 ч. 53 м.
Режим общего битрейта : Переменный
Общий поток : 3 127 Кбит/сек
Дата кодирования : UTC 2020-12-18 10:10:34
Программа кодирования : mkvmerge v7.7.0 ('Six Voices') 32bit built on Feb 28 2015 23:23:00
Библиотека кодирования : libebml v1.3.1 + libmatroska v1.4.2

Видео
Идентификатор : 1
Формат : AVC
Формат/Информация : Advanced Video Codec
Профиль формата : High@L4.1
Настройки формата : CABAC / 1 Ref Frames
Параметр CABAC формата : Да
Параметр RefFrames формата : 1 кадр
Идентификатор кодека : V_MPEG4/ISO/AVC
Продолжительность : 1 ч. 53 м.
Вид битрейта : Переменный
Битрейт : 2 677 Кбит/сек
Максимальный битрейт : 2 000 Кбит/сек
Ширина : 1 280 пикселей
Высота : 688 пикселей
Соотношение сторон : 1,85:1
Режим частоты кадров : Постоянный
Частота кадров : 24,000 кадра/сек
Цветовое пространство : YUV
Субдискретизация насыщенности : 4:2:0
Битовая глубина : 8 бит
Тип развёртки : Прогрессивная
Бит/(Пиксели*Кадры) : 0.127
Размер потока : 2,12 Гбайт (86%)
Язык : English
Default : Да
Forced : Нет

Аудио
Идентификатор : 2
Формат : AC-3
Формат/Информация : Audio Coding 3
Коммерческое название : Dolby Digital
Идентификатор кодека : A_AC3
Продолжительность : 1 ч. 53 м.
Вид битрейта : Постоянный
Битрейт : 448 Кбит/сек
Каналы : 6 каналов
Channel layout : L R C LFE Ls Rs
Частота : 48,0 КГц
Частота кадров : 31,250 кадров/сек (1536 SPF)
Метод сжатия : С потерями
Задержка видео : 31 мс.
Размер потока : 363 Мбайт (14%)
Заголовок : hdrezka
Язык : Russian
Service kind : Complete Main
Default : Да
Forced : Нет



Скриншоты:
[+] Всего файлов в раздаче - 1:
The.Angel.2018.WEBRip.720p.HDREZKA.STUDIO.mkv2.47 GB

Похожие раздачи по запросу - ангел:
2021-02-11 U Мой ангел [01-02 из 02] (2019) HDTVRip от Files-x 1.11 GB ↑ 43 ↓ 9
2021-02-08 U Мой Ангел [01-02 из 02] (2019) HDTVRip 720p от ExKinoRay 2.27 GB ↑ 29 ↓ 7
2021-01-30 U Огненный ангел [01-04 из 04] (2018) WEB-DLRip-AVC от Generalfilm | КПК 831.40 MB ↑ 31 ↓ 11
2019-07-15 U Алита: Боевой ангел / Alita: Battle Angel (2019) BDRip 1080p от qqss44 & MegaPeer | Локализованная версия | Лицензия 7.76 GB ↑ 563 ↓ 142
2019-07-14 U Алита: Боевой ангел / Alita: Battle Angel (2019) BDRip от MegaPeer | Локализованная версия | Лицензия 2.18 GB ↑ 1431 ↓ 65
2019-06-30 U Алита: Боевой ангел / Alita: Battle Angel (2019) WEB-DLRip-AVC от OlLanDGroup | P 2.14 GB ↑ 756 ↓ 84

Отзывы
Зарегистрируйтесь чтобы добавить комментарий.
Загрузите программу
  uTorrent.exe
Обратная связь
Copyleft ©