↑↓torrent.by
Поиск
Логин: Регистрация
Пароль: Восстановить пароль

Последнее поле брани между тобой и мной, или Святая война сотворения мира / Kimi to Boku no Saigo no Senjou, Aruiwa Sek [S01] (2020) WEBRip 1080p от FortunaTV | StudioBand

Скачать poslednee-pole-brani-mezhdu-toboy-i-mnoy-ili-svyataya-voyna-sotvoreniya-mira-kimi-to-boku-no-saigo-senjou-aruiwa-sek-s01-2020-webrip-1080p-ot-fortunatv-studioband.torrent
U Магнитная ссылка Размер: 8.37 GB Раздают: 21 Качают: 22 Добавлен: 2020-12-27 06:10:17
Последнее поле брани между тобой и мной, или Святая война сотворения мира / Kimi to Boku no Saigo no Senjou, Aruiwa Sek [S01] (2020) WEBRip 1080p от FortunaTV | StudioBand

Название: Последнее поле брани между тобой и мной, или Святая война сотворения мира
Оригинальное название: Kimi to Boku no Saigo no Senjou, Aruiwa Sek
Год выхода: 2020
Жанр: экшен, романтика, военное, фэнтези
Режиссер: Син Онума

О фильме:
На протяжении века между научно развитой Империей и царством ведьм Небулис бушевала великая война. Пока самый юный рыцарь из когда-либо живших, получивший звание сильнейшего в Империи, не повстречал принцессу вражеской нации. И пусть они заклятые враги, рыцаря пленили её красота и достоинство, тогда как принцессу тронули его сила и образ жизни. Итак, подойдёт ли когда-нибудь их сражение к своему концу? © shikimori

Страна: Япония
Продолжительность: ~00:24:00 (серия)
Перевод: Профессиональный (многоголосый, закадровый) | StudioBand [Wakanim]

Файл
Формат: MKV
Кодек: MPEG-4 AVC
Качество: WEBRip 1080p
Видео: 1920x1080, ~ 4 100 kb/s, 23.976 FPS. 8 bits
Аудио (русский): AAC LC, ~ 128 kb/s, 2 channels, 48.0 kHz
Субтитры: отсутствуют

Релиз от: FortunaTV

26.12.2020 обновлено. Добавлена 11-12-я серия. Сезон окончен.


[+] MediaInfo

1-я серия
General
Complete name : [FortunaTV] Our Last Crusade or the Rise of a New World - 01 (WEBRip 1920x1080 x264 AAC Rus).mp4
Format : MPEG-4
Format profile : Base Media
Codec ID : isom (isom/iso2/avc1/mp41)
File size : 716 MiB
Duration : 23 min 58 s
Overall bit rate : 4 177 kb/s
Writing application : Lavf57.71.100

Video
ID : 1
Format : AVC
Format/Info : Advanced Video Codec
Format profile : High@L4
Format settings : CABAC / 4 Ref Frames
Format settings, CABAC : Yes
Format settings, Reference frames : 4 frames
Codec ID : avc1
Codec ID/Info : Advanced Video Coding
Duration : 23 min 58 s
Bit rate : 4 100 kb/s
Width : 1 920 pixels
Height : 1 080 pixels
Display aspect ratio : 16:9
Frame rate mode : Variable
Frame rate : 23.976 (23976/1000) FPS
Minimum frame rate : 21.878 FPS
Maximum frame rate : 27.335 FPS
Color space : YUV
Chroma subsampling : 4:2:0
Bit depth : 8 bits
Scan type : Progressive
Bits/(Pixel*Frame) : 0.082
Stream size : 693 MiB (97%)
Writing library : x264 core 155
Encoding settings : cabac=1 / ref=3 / deblock=1:0:0 / analyse=0x3:0x113 / me=hex / subme=6 / psy=1 / psy_rd=1.00:0.00 / mixed_ref=0 / me_range=16 / chroma_me=1 / trellis=1 / 8x8dct=1 / cqm=0 / deadzone=21,11 / fast_pskip=1 / chroma_qp_offset=-2 / threads=24 / lookahead_threads=4 / sliced_threads=0 / nr=0 / decimate=1 / interlaced=0 / bluray_compat=0 / constrained_intra=0 / bframes=3 / b_pyramid=2 / b_adapt=1 / b_bias=0 / direct=1 / weightb=1 / open_gop=0 / weightp=2 / keyint=250 / keyint_min=25 / scenecut=0 / intra_refresh=0 / rc_lookahead=40 / rc=abr / mbtree=1 / bitrate=4100 / ratetol=1.0 / qcomp=0.60 / qpmin=0 / qpmax=69 / qpstep=4 / vbv_maxrate=4700 / vbv_bufsize=23500 / nal_hrd=none / filler=0 / ip_ratio=1.40 / aq=1:1.00
Codec configuration box : avcC

Audio
ID : 2
Format : AAC LC
Format/Info : Advanced Audio Codec Low Complexity
Codec ID : mp4a-40-2
Duration : 23 min 58 s
Bit rate mode : Constant
Bit rate : 128 kb/s
Channel(s) : 2 channels
Channel layout : L R
Sampling rate : 48.0 kHz
Frame rate : 46.875 FPS (1024 SPF)
Compression mode : Lossy
Stream size : 21.9 MiB (3%)
Default : Yes
Alternate group : 1



Скриншоты:
[+] Всего файлов в раздаче - 12:
[FortunaTV] Our Last Crusade or the Rise of a New World - 05 (WEBRip 1920x1080 x264 AAC Rus).mp4707.92 MB
[FortunaTV] Our Last Crusade or the Rise of a New World - 03 (WEBRip 1920x1080 x264 AAC Rus).mp4710.03 MB
[FortunaTV] Our Last Crusade or the Rise of a New World - 02 (WEBRip 1920x1080 x264 AAC Rus).mp4710.80 MB
[FortunaTV] Our Last Crusade or the Rise of a New World - 08 (WEBRip 1920x1080 x264 AAC Rus).mp4714.17 MB
[FortunaTV] Our Last Crusade or the Rise of a New World - 07 (WEBRip 1920x1080 x264 AAC Rus).mp4715.28 MB
[FortunaTV] Our Last Crusade or the Rise of a New World - 06 (WEBRip 1920x1080 x264 AAC Rus).mp4715.80 MB
[FortunaTV] Our Last Crusade or the Rise of a New World - 01 (WEBRip 1920x1080 x264 AAC Rus).mp4716.01 MB
[FortunaTV] Our Last Crusade or the Rise of a New World - 12 (WEBRip 1920x1080 x264 AAC Rus).mp4716.08 MB
[FortunaTV] Our Last Crusade or the Rise of a New World - 09 (WEBRip 1920x1080 x264 AAC Rus).mp4716.37 MB
[FortunaTV] Our Last Crusade or the Rise of a New World - 11 (WEBRip 1920x1080 x264 AAC Rus).mp4716.99 MB
[FortunaTV] Our Last Crusade or the Rise of a New World - 10 (WEBRip 1920x1080 x264 AAC Rus).mp4717.05 MB
[FortunaTV] Our Last Crusade or the Rise of a New World - 04 (WEBRip 1920x1080 x264 AAC Rus).mp4718.21 MB

Похожие раздачи по запросу - последнее:
2020-02-21 U Последнее, чего он хотел / The Last Thing He Wanted (2020) WEB-DLRip от MegaPeer | Пифагор 1.46 GB ↑ 320 ↓ 207

Отзывы
rym66
Пока прочитаешь название язык сломаешь. За новые серии спасибо.

Зарегистрируйтесь чтобы добавить комментарий.
Загрузите программу
  uTorrent.exe
Обратная связь
Copyleft ©