↑↓torrent.by
Поиск
Логин: Регистрация
Пароль: Восстановить пароль

Высшая форма / Идеальный / Perfect (2018) WEB-DL 1080p от ELEKTRI4KA | iTunes

Скачать vysshaya-forma-idealnyy-perfect-2018-web-dl-1080p-ot-elektri4ka-itunes.torrent
U Магнитная ссылка Размер: 4.11 GB Раздают: 83 Качают: 42 Добавлен: 2020-12-27 13:51:40
Высшая форма / Идеальный / Perfect (2018) WEB-DL 1080p от ELEKTRI4KA | iTunes

Название: Высшая форма / Идеальный
Оригинальное название: Perfect
Год выхода: 2018
Жанр: Ужасы, фантастика, триллер, детектив
Режиссер: Эдди Алказар
В ролях: Эбби Корниш, Кортни Итон, Рэйни Куэлли, Тао Окамото, Морис Комт, Леонардо Нам, Мартин Сенсмейер, Гарретт Вэрэйнг, Сара Макдэниел, Алисия Санс

О фильме:  Подросток Гарретт страдает от мрачных видений. Он пытается решить проблему вживлением специального имплантата, но сталкивается с непредвиденными последствиями.

Выпущено: США / Brainfeeder Films
Продолжительность: 01:27:26
Озвучивание: Профессиональное (многоголосое) | iTunes

Файл
Формат: MKV
Качество: WEB-DL 1080p | AMAZON Version
Видео: MPEG-4 AVC, 6344 Kb/s, 1920x800
Аудио #1: Russian: 48 kHz, AC3 Dolby Digital, 3/2 (L, C, R, l, r) + LFE ch, ~384 Kbps | iTunes
Аудио #2: English: 48 kHz, Enhanced AC3 Dolby Digital, 3/2 (L, C, R, l, r) + LFE ch, ~640 Kbps | Original
Субтитры: Нет
Дополнительно: Нет

Релиз: &


[+] MediaInfo:
Complete name : Vyisshaya.forma.2018.AMZN.WEB-DL.1080p.ELEKTRI4KA.UNIONGANG.mkv
Format : Matroska
Format version : Version 4 / Version 2
File size : 4.11 GiB
Duration : 1 h 27 min
Overall bit rate mode : Constant
Overall bit rate : 6 730 kb/s
Movie name : .ELEKTRI4KA.UNIONGANG.
Encoded date : UTC 2020-12-26 22:43:25
Writing application : mkvmerge v8.3.0 ('Over the Horizon') 64bit
Writing library : libebml v1.3.1 + libmatroska v1.4.2

Video
ID : 1
Format : AVC
Format/Info : Advanced Video Codec
Format profile : High@L4
Format settings, CABAC : Yes
Format settings, Reference frames : 4 frames
Codec ID : V_MPEG4/ISO/AVC
Duration : 1 h 27 min
Bit rate mode : Constant
Bit rate : 6 344 kb/s
Nominal bit rate : 10 000 kb/s
Width : 1 920 pixels
Height : 800 pixels
Display aspect ratio : 2.40:1
Frame rate mode : Constant
Frame rate : 23.976 (24000/1001) FPS
Color space : YUV
Chroma subsampling : 4:2:0
Bit depth : 8 bits
Scan type : Progressive
Bits/(Pixel*Frame) : 0.172
Stream size : 3.87 GiB (94%)
Title : .ELEKTRI4KA.UNIONGANG.
Default : Yes
Forced : No
Color range : Limited
Color primaries : BT.709
Transfer characteristics : BT.709
Matrix coefficients : BT.709

Audio
ID : 2
Format : AC-3
Format/Info : Audio Coding 3
Mode extension : CM (complete main)
Format settings, Endianness : Big
Codec ID : A_AC3
Duration : 1 h 27 min
Bit rate mode : Constant
Bit rate : 384 kb/s
Channel(s) : 6 channels
Channel positions : Front: L C R, Side: L R, LFE
Sampling rate : 48.0 kHz
Frame rate : 31.250 FPS (1536 spf)
Bit depth : 16 bits
Compression mode : Lossy
Stream size : 240 MiB (6%)
Title : MVO (iTunes)
Language : Russian
Default : Yes
Forced : No



Скриншоты:
[+] Всего файлов в раздаче - 1:
Vyisshaya.forma.2018.AMZN.WEB-DL.1080p.ELEKTRI4KA.UNIONGANG.mkv4.11 GB

Показать еще раздачи по запросу высшая:
2021-02-08 U Иван Миронов - Высшая каста (2021) MP3 821.92 MB ↑ 30 ↓ 8
2021-01-01 U КВН-2020. Высшая лига. Финал [01.01] (2021) SATRip 1.79 GB ↑ 1323 ↓ 401
2020-12-27 U Высшая форма / Идеальный / Perfect (2018) WEB-DLRip от MegaPeer | iTunes 1.46 GB ↑ 100 ↓ 60
2020-12-13 U КВН-2020. Высшая лига. 1/2 финала. Игра вторая [13.12] (2020) SATRip 1.60 GB ↑ 242 ↓ 184
2020-12-12 U Высшая лига детектива [10 книг] (2018-2020) FB2 19.94 MB ↑ 80 ↓ 11
2020-12-07 U КВН-2020. Высшая лига 1/4 финала. 1/2 финала. (2020) HDTVRip от GeneralFilm 5.25 GB ↑ 49 ↓ 67
2020-12-06 U КВН-2020. Высшая лига. 1/2 финала. Игра первая [06.12] (2020) SATRip 1.52 GB ↑ 997 ↓ 280

Отзывы
Зарегистрируйтесь чтобы добавить комментарий.
Загрузите программу
  uTorrent.exe
Обратная связь
Copyleft ©