↑↓torrent.by
Поиск
Логин: Регистрация
Пароль: Восстановить пароль

Самый Новый год! (2020) WEBRip-AVC | IVI

Скачать samyy-novyy-god-2020-webrip-avc-ivi.torrent
U Магнитная ссылка Размер: 1.45 GB Раздают: 201 Качают: 68 Добавлен: 2020-12-31 18:40:50
Самый Новый год! (2020) WEBRip-AVC | IVI

Самый Новый год!

Название:  Самый Новый год!  
Год выхода: 2020
Жанр: Комедия, фантастика
Режиссер:  Антонина Руже
В ролях:    Роман Курцын, Алина Алексеева, Елизавета Кононова, Ксения Радченко, Иван Макаревич, Владимир Сычев, Наталья Щукина, Антон Шурцов, Артем Костюнёв, Юлия Серина и др.

Описание:    У Саши три проблемы: девушка, которая хочет свадьбу, на которую он никак не может решиться, ведь он всего-навсего ветеринарный фельдшер и чистит уши собакам, родители, ведь маме не нравится Оля, а папе не нравится его работа, потому что Саша чистит уши собакам, и третья - он не нравится Олиной маме, потому что... да, потому что он чистит уши собакам. В новогоднюю ночь все собираются у Саши дома, чтобы отпраздновать еще и его день рождения, ведь родился он 1 января. Оля приготовила ему подарок - он скоро станет папой! Чтобы хоть на какое-то время остаться наедине со своими мыслями, Саша прячется в туалете. Нажав на смыв, он оказывается... в квартире своих родителей за два часа до своего рождения. И на дворе 31 декабря 1992 года.
 
Страна:  Россия
Студия:  КиноФирма
Продолжительность:   01:19:36
Перевод:  Не требуется - IVI



Информация о файле:
Кодек: AVC
Формат: MKV
Качество: WEBRip-AVC
Видео: MPEG-4 AVC, 1024x426, 24.000 fps, 2225 kbps  
Аудио RU:  AC3, 6 ch, 48 kHz, 384 kbps  
Субтитры: Нет
Навигация по главам:  Нет

Релиз: &  &


[+] MediaInfo
General [url=/tag/5/][/url]
Unique ID                                : 36650866886849476578601248249154835876 (0x1B92B34078CFA0E45E4578911AFB15A4) [url=/tag/5/][/url]
Complete name                            : D:uTorrentРипы_от_wolf1245_MediaBitСамый Новый год!.2020.IVI.WEBRip-AVC_wolf1245_MediaBit.mkv [url=/tag/5/][/url]
Format                                   : Matroska [url=/tag/5/][/url]
Format version                           : Version 4 [url=/tag/5/][/url]
File size                                : 1.45 GiB [url=/tag/5/][/url]
Duration                                 : 1 h 19 min [url=/tag/5/][/url]
Overall bit rate                         : 2 609 kb/s [url=/tag/5/][/url]
Movie name                               : Самый Новый год!.2020.IVI.WEBRip-AVC_wolf1245_MediaBit [url=/tag/5/][/url]
Encoded date                             : UTC 2020-12-31 13:38:44 [url=/tag/5/][/url]
Writing application                      : mkvmerge v51.0.0 ('I Wish') 64-bit [url=/tag/5/][/url]
Writing library                          : libebml v1.4.0 + libmatroska v1.6.2 [url=/tag/5/][/url]
[url=/tag/5/][/url]
Video [url=/tag/5/][/url]
ID                                       : 1 [url=/tag/5/][/url]
Format                                   : AVC [url=/tag/5/][/url]
Format/Info                              : Advanced Video Codec [url=/tag/5/][/url]
Format profile                           : High@L4.1 [url=/tag/5/][/url]
Format settings                          : CABAC / 12 Ref Frames [url=/tag/5/][/url]
Format settings, CABAC                   : Yes [url=/tag/5/][/url]
Format settings, Reference frames        : 12 frames [url=/tag/5/][/url]
Codec ID                                 : V_MPEG4/ISO/AVC [url=/tag/5/][/url]
Duration                                 : 1 h 19 min [url=/tag/5/][/url]
Bit rate                                 : 2 225 kb/s [url=/tag/5/][/url]
Width                                    : 1 024 pixels [url=/tag/5/][/url]
Height                                   : 426 pixels [url=/tag/5/][/url]
Display aspect ratio                     : 2.40:1 [url=/tag/5/][/url]
Frame rate mode                          : Constant [url=/tag/5/][/url]
Frame rate                               : 24.000 FPS [url=/tag/5/][/url]
Color space                              : YUV [url=/tag/5/][/url]
Chroma subsampling                       : 4:2:0 [url=/tag/5/][/url]
Bit depth                                : 8 bits [url=/tag/5/][/url]
Scan type                                : Progressive [url=/tag/5/][/url]
Bits/(Pixel*Frame)                       : 0.213 [url=/tag/5/][/url]
Stream size                              : 1.24 GiB (85%) [url=/tag/5/][/url]
Title                                    : wolf1245_MediaBit [url=/tag/5/][/url]
Writing library                          : x264 core 157 r2958 57baac4 [url=/tag/5/][/url]
Encoding settings                        : cabac=1 / ref=12 / deblock=1:-2:-2 / analyse=0x3:0x133 / me=umh / subme=10 / psy=1 / psy_rd=1.00:0.10 / mixed_ref=1 / me_range=48 / chroma_me=1 / trellis=2 / 8x8dct=1 / cqm=0 / deadzone=21,11 / fast_pskip=0 / chroma_qp_offset=-3 / threads=10 / lookahead_threads=2 / sliced_threads=0 / nr=0 / decimate=0 / interlaced=0 / bluray_compat=0 / constrained_intra=0 / bframes=12 / b_pyramid=2 / b_adapt=2 / b_bias=0 / direct=3 / weightb=1 / open_gop=0 / weightp=2 / keyint=240 / keyint_min=24 / scenecut=40 / intra_refresh=0 / rc_lookahead=60 / rc=2pass / mbtree=0 / bitrate=2225 / ratetol=1.0 / qcomp=0.60 / qpmin=0 / qpmax=69 / qpstep=4 / cplxblur=20.0 / qblur=0.5 / vbv_maxrate=50000 / vbv_bufsize=62500 / nal_hrd=none / filler=0 / ip_ratio=1.40 / pb_ratio=1.30 / aq=1:0.80 [url=/tag/5/][/url]
Language                                 : Russian [url=/tag/5/][/url]
Default                                  : Yes [url=/tag/5/][/url]
Forced                                   : No [url=/tag/5/][/url]
[url=/tag/5/][/url]
Audio [url=/tag/5/][/url]
ID                                       : 2 [url=/tag/5/][/url]
Format                                   : AC-3 [url=/tag/5/][/url]
Format/Info                              : Audio Coding 3 [url=/tag/5/][/url]
Commercial name                          : Dolby Digital [url=/tag/5/][/url]
Codec ID                                 : A_AC3 [url=/tag/5/][/url]
Duration                                 : 1 h 19 min [url=/tag/5/][/url]
Bit rate mode                            : Constant [url=/tag/5/][/url]
Bit rate                                 : 384 kb/s [url=/tag/5/][/url]
Channel(s)                               : 6 channels [url=/tag/5/][/url]
Channel layout                           : L R C LFE Ls Rs [url=/tag/5/][/url]
Sampling rate                            : 48.0 kHz [url=/tag/5/][/url]
Frame rate                               : 31.250 FPS (1536 SPF) [url=/tag/5/][/url]
Compression mode                         : Lossy [url=/tag/5/][/url]
Stream size                              : 219 MiB (15%) [url=/tag/5/][/url]
Title                                    : RUS | IVI [url=/tag/5/][/url]
Language                                 : Russian [url=/tag/5/][/url]
Service kind                             : Complete Main [url=/tag/5/][/url]
Default                                  : Yes [url=/tag/5/][/url]
Forced                                   : No [url=/tag/5/][/url]
[url=/tag/5/][/url]



Скриншоты:
[+] Всего файлов в раздаче - 1:
Самый Новый год!.2020.IVI.WEBRip-AVC_wolf1245_MediaBit.mkv1.45 GB

Похожие раздачи по запросу - самый:
2021-01-01 U Самый Новый год! (2020) WEB-DLRip-AVC от Files-х 1.46 GB ↑ 51 ↓ 21
2020-12-31 U Самый Новый год! (2020) WEB-DLRip-AVC | IVI 744.79 MB ↑ 187 ↓ 47
2020-12-31 U Самый Новый год! (2020) WEBRip от ELEKTRI4KA | IVI 1.37 GB ↑ 1165 ↓ 446
2020-12-17 U Самый счастливый сезон / Happiest Season (2020) WEB-DL 1080p | P 5.63 GB ↑ 49 ↓ 13
2020-10-24 U Засекреченные списки. Тайные операции спецслужб: кто самый сильный? (2020) SATRip 1.34 GB ↑ 181 ↓ 31
2020-10-03 U Самый жестокий год / A Most Violent Year (2014) BDRip 1080p от HDReactor | P, L1 6.77 GB ↑ 71 ↓ 20

Отзывы
Зарегистрируйтесь чтобы добавить комментарий.
Загрузите программу
  uTorrent.exe
Обратная связь
Copyleft ©