↑↓torrent.by
Поиск
Логин: Регистрация
Пароль: Восстановить пароль

Наркоман Павлик: Секретная серия (2020) WEBRip 1080p

Скачать narkoman-pavlik-sekretnaya-seriya-2020-webrip-1080p.torrent
U Магнитная ссылка Размер: 1.69 GB Раздают: 41 Качают: 31 Добавлен: 2021-01-01 04:15:48
Наркоман Павлик: Секретная серия (2020) WEBRip 1080p

Название: Наркоман Павлик: Секретная серия
Год выхода: 2020
Жанр: Комедия, короткометражный
Режиссер: Павел Радонцев
В ролях: Павел Радонцев, Денис Гущин, Кирилл Демидов, Антон Батищев, Илья Сорокин, Андрей Савицкий, Регина Вожова, Иван Солдаткин, Ольга Лапушкина, Михаил Мартынов, Хамид Дышниев, Андрей Мирославский, Артём Веретенников, Николай Гусляров

О сериале:
Короткометражный, юмористический сериал о приключениях Павлика, от участников проектов Comedy Club Samara Style, Comedy Club Saint-Petersburg. Сериал стремительно набирает популярность, фразы Павлика всё чаще встречаются на просторах рунета. "Здорова братиш!" - если вы слышали это и не знали откуда, смотрите. Очень угарная и ржачная тема!

Страна: Россия
Студия: Comedoz
Продолжительность: 00:46:36
Перевод: Не требуется
Субтитры: Нет

Файл
Формат: MKV
Качество: WEBRip (1080p)

Видео: MPEG-4 AVC, ~ 5000 Кбит/с, 1920x1080
Звук: AC3, 2 ch, 192 Кбит/с
[+] MediaInfo
Общее
Уникальный идентификатор                 : 322732060704785962474413642826632312280 (0xF2CBEF18D29DC3D0EB9809EFC6B6B5D8)
Полное имя                               : ПАВЛИК  - СЕКРЕТНАЯ СЕРИЯ.mkv
Формат                                   : Matroska
Версия формата                           : Version 4
Размер файла                             : 1,69 Гбайт
Продолжительность                        : 46 м. 36 с.
Общий поток                              : 5 195 Кбит/сек
Дата кодирования                         : UTC 2020-12-31 18:35:09
Программа кодирования                    : mkvmerge v51.0.0 ('I Wish') 64-bit
Библиотека кодирования                   : libebml v1.4.0 + libmatroska v1.6.2

Видео
Идентификатор                            : 1
Формат                                   : AVC
Формат/Информация                        : Advanced Video Codec
Профиль формата                          : Main@L4
Настройки формата                        : CABAC / 4 Ref Frames
Параметр CABAC формата                   : Да
Параметр RefFrames формата               : 4 кадра
Идентификатор кодека                     : V_MPEG4/ISO/AVC
Продолжительность                        : 46 м. 36 с.
Битрейт                                  : 5 001 Кбит/сек
Ширина                                   : 1 920 пикселей
Высота                                   : 1 080 пикселей
Соотношение сторон                       : 16:9
Режим частоты кадров                     : Постоянный
Частота кадров                           : 25,000 кадров/сек
Цветовое пространство                    : YUV
Субдискретизация насыщенности            : 4:2:0
Битовая глубина                          : 8 бит
Тип развёртки                            : Прогрессивная
Бит/(Пиксели*Кадры)                      : 0.096
Размер потока                            : 1,63 Гбайт (96%)
Default                                  : Да
Forced                                   : Нет

Аудио
Идентификатор                            : 2
Формат                                   : AC-3
Формат/Информация                        : Audio Coding 3
Коммерческое название                    : Dolby Digital
Идентификатор кодека                     : A_AC3
Продолжительность                        : 46 м. 36 с.
Вид битрейта                             : Постоянный
Битрейт                                  : 192 Кбит/сек
Каналы                                   : 2 канала
Channel layout                           : L R
Частота                                  : 48,0 КГц
Частота кадров                           : 31,250 кадров/сек (1536 SPF)
Метод сжатия                             : С потерями
Размер потока                            : 64,0 Мбайт (4%)
Default                                  : Да
Forced                                   : Нет



Скриншоты:
[+] Всего файлов в раздаче - 1:
ПАВЛИК - СЕКРЕТНАЯ СЕРИЯ.mkv1.69 GB

Отзывы
Зарегистрируйтесь чтобы добавить комментарий.
Загрузите программу
  uTorrent.exe
Обратная связь
Copyleft ©