↑↓torrent.by
Поиск
Логин: Регистрация
Пароль: Восстановить пароль

Самый Новый год! (2020) WEB-DLRip-AVC от Files-х

Скачать samyy-novyy-god-2020-web-dlrip-avc-ot-files-h.torrent
U Магнитная ссылка Размер: 1.46 GB Раздают: 51 Качают: 21 Добавлен: 2021-01-01 04:16:40
Самый Новый год! (2020) WEB-DLRip-AVC от Files-х

Название: Самый Новый год!
Год выхода: 2020
Жанр: Комедия, фантастика
Режиссер: Антонина Руже
В ролях: Роман Курцын, Елизавета Кононова, Алина Алексеева, Владимир Сычёв, Наталья Щукина, Ксения Радченко, Иван Макаревич

О фильме: У Саши три проблемы: девушка, которая хочет свадьбу, на которую он никак не может решиться, ведь он всего-навсего ветеринарный фельдшер и чистит уши собакам, родители, ведь маме не нравится Оля, а папе не нравится его работа, потому что Саша чистит уши собакам, и третья - он не нравится Олиной маме, потому что... да, потому что он чистит уши собакам.

Выпущено: Россия
Студия: КиноФирма
Продолжительность: 01:19:36
Озвучивание: Оригинал | IVI

Файл
Кодек: h.264
Качество: WEB-DLRip-AVC
Видео: MPEG-4 AVC, ~ 2234 Кбит/с, 1024x432, 24 кадр/с
Аудио: AC3, 6 ch, 384 Кбит/с
Язык: Русский
Субтитры: Нет

Релиз:


[+] MediaInfo:

General
Unique ID                                : 242679503561032897942921841370788714340 (0xB6925F4DB94FDA7CBD2C2450FDB6D764)
Complete name                            : F:Samyj Novyj God.(2020).WEB-DLRip.(AVC).by.Серый1779.Files-x.mkv
Format                                   : Matroska
Format version                           : Version 2
File size                                : 1.46 GiB
Duration                                 : 1 h 19 min
Overall bit rate                         : 2 619 kb/s
Encoded date                             : UTC 2020-12-31 11:24:24
Writing application                      : mkvmerge v7.8.0 ('River Man') 32bit built on Apr  3 2015 12:11:22
Writing library                          : libebml v1.3.1 + libmatroska v1.4.2

Video
ID                                       : 1
Format                                   : AVC
Format/Info                              : Advanced Video Codec
Format profile                           : High@L4.1
Format settings                          : CABAC / 10 Ref Frames
Format settings, CABAC                   : Yes
Format settings, RefFrames               : 10 frames
Codec ID                                 : V_MPEG4/ISO/AVC
Duration                                 : 1 h 19 min
Bit rate                                 : 2 234 kb/s
Width                                    : 1 024 pixels
Height                                   : 432 pixels
Display aspect ratio                     : 2.40:1
Frame rate mode                          : Constant
Frame rate                               : 24.000 FPS
Color space                              : YUV
Chroma subsampling                       : 4:2:0
Bit depth                                : 8 bits
Scan type                                : Progressive
Bits/(Pixel*Frame)                       : 0.210
Stream size                              : 1.21 GiB (83%)
Writing library                          : x264 core 146 r2538 121396c
Encoding settings                        : cabac=1 / ref=10 / deblock=1:-2:-1 / analyse=0x3:0x133 / me=umh / subme=11 / psy=1 / psy_rd=1.00:0.08 / mixed_ref=1 / me_range=32 / chroma_me=1 / trellis=2 / 8x8dct=1 / cqm=0 / deadzone=21,11 / fast_pskip=0 / chroma_qp_offset=-3 / threads=18 / lookahead_threads=3 / sliced_threads=0 / nr=0 / decimate=1 / interlaced=0 / bluray_compat=0 / constrained_intra=0 / bframes=11 / b_pyramid=2 / b_adapt=2 / b_bias=0 / direct=1 / weightb=1 / open_gop=0 / weightp=2 / keyint=250 / keyint_min=23 / scenecut=40 / intra_refresh=0 / rc=2pass / mbtree=0 / bitrate=2234 / ratetol=1.0 / qcomp=0.60 / qpmin=0 / qpmax=69 / qpstep=4 / cplxblur=20.0 / qblur=0.5 / ip_ratio=1.40 / pb_ratio=1.30 / aq=2:1.00
Default                                  : Yes
Forced                                   : No
Color range                              : Limited
Color primaries                          : BT.709
Transfer characteristics                 : BT.709
Matrix coefficients                      : BT.709

Audio
ID                                       : 2
Format                                   : AC-3
Format/Info                              : Audio Coding 3
Format settings, Endianness              : Big
Codec ID                                 : A_AC3
Duration                                 : 1 h 19 min
Bit rate mode                            : Constant
Bit rate                                 : 384 kb/s
Channel(s)                               : 6 channels
Channel positions                        : Front: L C R, Side: L R, LFE
Sampling rate                            : 48.0 kHz
Frame rate                               : 31.250 FPS (1536 SPF)
Bit depth                                : 16 bits
Compression mode                         : Lossy
Stream size                              : 219 MiB (15%)
Service kind                             : Complete Main
Default                                  : Yes
Forced                                   : No




Скриншоты:
[+] Всего файлов в раздаче - 1:
Samyj Novyj God.(2020).WEB-DLRip.(AVC).by.Серый1779.Files-x.mkv1.46 GB

Похожие раздачи по запросу - самый:
2020-12-31 U Самый Новый год! (2020) WEBRip-AVC | IVI 1.45 GB ↑ 201 ↓ 68
2020-12-31 U Самый Новый год! (2020) WEB-DLRip-AVC | IVI 744.79 MB ↑ 187 ↓ 47
2020-12-31 U Самый Новый год! (2020) WEBRip от ELEKTRI4KA | IVI 1.37 GB ↑ 1165 ↓ 446
2020-12-17 U Самый счастливый сезон / Happiest Season (2020) WEB-DL 1080p | P 5.63 GB ↑ 49 ↓ 13
2020-10-24 U Засекреченные списки. Тайные операции спецслужб: кто самый сильный? (2020) SATRip 1.34 GB ↑ 182 ↓ 31
2020-10-03 U Самый жестокий год / A Most Violent Year (2014) BDRip 1080p от HDReactor | P, L1 6.77 GB ↑ 71 ↓ 20

Отзывы
Зарегистрируйтесь чтобы добавить комментарий.
Загрузите программу
  uTorrent.exe
Обратная связь
Copyleft ©