↑↓torrent.by
Поиск
Логин: Регистрация
Пароль: Восстановить пароль

Мажор. Фильм (2021) WEBRip-AVC

Скачать mazhor-film-2021-webrip-avc.torrent
U Магнитная ссылка Размер: 745.48 MB Раздают: 619 Качают: 119 Добавлен: 2021-01-02 18:06:12
Мажор. Фильм (2021) WEBRip-AVC

Мажор. Фильм

Название:  Мажор. Фильм
Год выхода: 2021
Жанр: Боевик, комедия
Режиссер:  Максим Полинский, Николай Булыгин
В ролях:   Павел Прилучный, Евгений Стычкин, Агния Дитковските, Дарина Эрвин, Даниил Воробьев, Владимир Селезнев, Дмитрий Шевченко, Александр Обласов, Игорь Жижикин, Павел Чинарёв

Описание:   Мажор виртуозно сбегает из тюрьмы и начинает новую жизнь. Новую сладкую жизнь! Соколовский вливается в светскую тусовку, где все сидят на новом синтетическом наркотике, и его снова окружают тачки, виллы и топ-модели. Друзья, враги и ФСБ идут по следу Мажора, пытаясь понять, какую игру он затеял и на чьей он стороне. Игорь же пытается понять, кто он сам — предатель, святой или всё тот же… Мажор?

Страна:  Россия
Студия:  Продюсерская компания «Среда»
Продолжительность:  01:38:05
Перевод:   Не требуется

Информация о файле:
Кодек: AVC
Формат: MKV
Качество: WEB-DLRip-AVC
Видео: MPEG-4 AVC, 720x302, 24.000 fps, 966 kbps
Аудио RU:  AAC-HE, 2 ch, 48 kHz, 96 kbps  
Субтитры: русские (форс. вшитые, полные)

Релиз: &  &


[+] MediaInfo
x264 info: frame I:1603  Avg QP:15.08  size: 36888 [url=/tag/5/][/url]
x264 info: frame P:36802 Avg QP:18.52  size: 10651 [url=/tag/5/][/url]
x264 info: frame B:102851 Avg QP:20.32  size:  2513 [url=/tag/5/][/url]
x264 info: consecutive B-frames:  4.3%  6.1%  8.9% 39.0%  7.1% 32.7%  1.0%  0.7%  0.1%  0.1%  0.0%  0.0%  0.1% [url=/tag/5/][/url]
[url=/tag/5/][/url]
General [url=/tag/5/][/url]
Unique ID                                : 150245755772809717026425007527112529978 (0x710847AE790D55EE10117FF1C7B0D83A) [url=/tag/5/][/url]
Complete name                            : D:uTorrentРипы_от_wolf1245_MediaBitMazhor.Film.2021.WEBRip-AVC.745Mb.wolf1245_MediaBit.mkv [url=/tag/5/][/url]
Format                                   : Matroska [url=/tag/5/][/url]
Format version                           : Version 4 [url=/tag/5/][/url]
File size                                : 745 MiB [url=/tag/5/][/url]
Duration                                 : 1 h 38 min [url=/tag/5/][/url]
Overall bit rate                         : 1 062 kb/s [url=/tag/5/][/url]
Movie name                               : Mazhor.Film.2021.WEBRip-AVC.745Mb.wolf1245_MediaBit [url=/tag/5/][/url]
Encoded date                             : UTC 2021-01-02 08:50:37 [url=/tag/5/][/url]
Writing application                      : mkvmerge v51.0.0 ('I Wish') 64-bit [url=/tag/5/][/url]
Writing library                          : libebml v1.4.0 + libmatroska v1.6.2 [url=/tag/5/][/url]
[url=/tag/5/][/url]
Video [url=/tag/5/][/url]
ID                                       : 1 [url=/tag/5/][/url]
Format                                   : AVC [url=/tag/5/][/url]
Format/Info                              : Advanced Video Codec [url=/tag/5/][/url]
Format profile                           : High@L4.1 [url=/tag/5/][/url]
Format settings                          : CABAC / 12 Ref Frames [url=/tag/5/][/url]
Format settings, CABAC                   : Yes [url=/tag/5/][/url]
Format settings, Reference frames        : 12 frames [url=/tag/5/][/url]
Codec ID                                 : V_MPEG4/ISO/AVC [url=/tag/5/][/url]
Duration                                 : 1 h 38 min [url=/tag/5/][/url]
Bit rate                                 : 966 kb/s [url=/tag/5/][/url]
Width                                    : 720 pixels [url=/tag/5/][/url]
Height                                   : 302 pixels [url=/tag/5/][/url]
Display aspect ratio                     : 2.40:1 [url=/tag/5/][/url]
Frame rate mode                          : Constant [url=/tag/5/][/url]
Frame rate                               : 24.000 FPS [url=/tag/5/][/url]
Color space                              : YUV [url=/tag/5/][/url]
Chroma subsampling                       : 4:2:0 [url=/tag/5/][/url]
Bit depth                                : 8 bits [url=/tag/5/][/url]
Scan type                                : Progressive [url=/tag/5/][/url]
Bits/(Pixel*Frame)                       : 0.185 [url=/tag/5/][/url]
Stream size                              : 677 MiB (91%) [url=/tag/5/][/url]
Title                                    : wolf1245_MediaBit [url=/tag/5/][/url]
Writing library                          : x264 core 157 r2958 57baac4 [url=/tag/5/][/url]
Encoding settings                        : cabac=1 / ref=12 / deblock=1:-3:-3 / analyse=0x3:0x133 / me=umh / subme=11 / psy=1 / psy_rd=1.02:0.05 / mixed_ref=1 / me_range=48 / chroma_me=1 / trellis=2 / 8x8dct=1 / cqm=0 / deadzone=21,11 / fast_pskip=0 / chroma_qp_offset=-3 / threads=10 / lookahead_threads=2 / sliced_threads=0 / nr=0 / decimate=0 / interlaced=0 / bluray_compat=0 / constrained_intra=0 / bframes=12 / b_pyramid=2 / b_adapt=2 / b_bias=0 / direct=3 / weightb=1 / open_gop=0 / weightp=2 / keyint=240 / keyint_min=24 / scenecut=40 / intra_refresh=0 / rc_lookahead=100 / rc=2pass / mbtree=0 / bitrate=966 / ratetol=1.0 / qcomp=0.60 / qpmin=0 / qpmax=69 / qpstep=4 / cplxblur=20.0 / qblur=0.5 / vbv_maxrate=50000 / vbv_bufsize=62500 / nal_hrd=none / filler=0 / ip_ratio=1.40 / pb_ratio=1.30 / aq=1:0.80 [url=/tag/5/][/url]
Language                                 : Russian [url=/tag/5/][/url]
Default                                  : Yes [url=/tag/5/][/url]
Forced                                   : No [url=/tag/5/][/url]
Color range                              : Limited [url=/tag/5/][/url]
Color primaries                          : BT.709 [url=/tag/5/][/url]
Transfer characteristics                 : BT.709 [url=/tag/5/][/url]
Matrix coefficients                      : BT.709 [url=/tag/5/][/url]
[url=/tag/5/][/url]
Audio [url=/tag/5/][/url]
ID                                       : 2 [url=/tag/5/][/url]
Format                                   : AAC LC SBR [url=/tag/5/][/url]
Format/Info                              : Advanced Audio Codec Low Complexity with Spectral Band Replication [url=/tag/5/][/url]
Commercial name                          : HE-AAC [url=/tag/5/][/url]
Format settings                          : Implicit [url=/tag/5/][/url]
Codec ID                                 : A_AAC-2 [url=/tag/5/][/url]
Duration                                 : 1 h 38 min [url=/tag/5/][/url]
Bit rate                                 : 96.0 kb/s [url=/tag/5/][/url]
Channel(s)                               : 2 channels [url=/tag/5/][/url]
Channel layout                           : L R [url=/tag/5/][/url]
Sampling rate                            : 48.0 kHz [url=/tag/5/][/url]
Frame rate                               : 23.438 FPS (2048 SPF) [url=/tag/5/][/url]
Compression mode                         : Lossy [url=/tag/5/][/url]
Stream size                              : 67.4 MiB (9%) [url=/tag/5/][/url]
Title                                    : RUS [url=/tag/5/][/url]
Language                                 : Russian [url=/tag/5/][/url]
Default                                  : Yes [url=/tag/5/][/url]
Forced                                   : No [url=/tag/5/][/url]
[url=/tag/5/][/url]
Text [url=/tag/5/][/url]
ID                                       : 3 [url=/tag/5/][/url]
Format                                   : UTF-8 [url=/tag/5/][/url]
Codec ID                                 : S_TEXT/UTF8 [url=/tag/5/][/url]
Codec ID/Info                            : UTF-8 Plain Text [url=/tag/5/][/url]
Duration                                 : 1 h 33 min [url=/tag/5/][/url]
Bit rate                                 : 86 b/s [url=/tag/5/][/url]
Count of elements                        : 1219 [url=/tag/5/][/url]
Stream size                              : 59.2 KiB (0%) [url=/tag/5/][/url]
Title                                    : rusFull [url=/tag/5/][/url]
Language                                 : Russian [url=/tag/5/][/url]
Default                                  : No [url=/tag/5/][/url]
Forced                                   : No [url=/tag/5/][/url]
[url=/tag/5/][/url]



Скриншоты:
[+] Всего файлов в раздаче - 1:
Mazhor.Film.2021.WEBRip-AVC.745Mb.wolf1245_MediaBit.mkv745.48 MB

Показать еще раздачи по запросу мажор:
2021-02-26 U Мажор. Фильм (2021) WEB-DLRip-AVC от ExKinoRay | Расширенная версия 1.45 GB ↑ 116 ↓ 35
2021-01-06 U Мажор. Фильм (2021) WEB-DLRip от GeneralFilm 1.45 GB ↑ 55 ↓ 36
2021-01-06 U Мажор. Фильм (2021) WEB-DLRip от ExKinoRay 745.76 MB ↑ 70 ↓ 7
2021-01-05 U Мажор. Фильм (2021) WEB-DLRip-AVC от Files-х 1.46 GB ↑ 239 ↓ 86
2021-01-05 U Мажор. Фильм (2021) WEB-DLRip от Generalfilm | КПК 375.12 MB ↑ 36 ↓ 8
2021-01-03 U Мажор. Фильм (2021) WEBRip 746.47 MB ↑ 299 ↓ 62
2021-01-03 U Мажор. Фильм (2021) WEB-DLRip 1.46 GB ↑ 433 ↓ 149

Отзывы
Зарегистрируйтесь чтобы добавить комментарий.
Загрузите программу
  uTorrent.exe
Обратная связь
Copyleft ©