↑↓torrent.by
Поиск
Логин: Регистрация
Пароль: Восстановить пароль

Мажор. Фильм (2021) WEB-DL 1080p

Скачать mazhor-film-2021-web-dl-1080p.torrent
U Магнитная ссылка Размер: 3.81 GB Раздают: 543 Качают: 448 Добавлен: 2021-01-03 16:01:46
Мажор. Фильм (2021) WEB-DL 1080p

Название: Мажор. Фильм
Год выхода: 2021
Жанр: Боевик, комедия
Режиссер: Максим Полинский, Николай Булыгин
В ролях: Павел Прилучный, Евгений Стычкин, Агния Дитковските, Дарина Эрвин, Даниил Воробьёв, Владимир Селезнев, Дмитрий Шевченко, Александр Обласов, Игорь Жижикин, Павел Чинарёв

О фильме:
Мажор виртуозно сбегает из тюрьмы и начинает новую жизнь. Новую сладкую жизнь! Соколовский вливается в светскую тусовку, где все сидят на новом синтетическом наркотике, и его снова окружают тачки, виллы и топ-модели. Друзья, враги и ФСБ идут по следу Мажора, пытаясь понять, какую игру он затеял и на чьей он стороне. Игорь же пытается понять, кто он сам — предатель, святой или всё тот же… Мажор?

Страна: Россия
Студия: Продюсерская компания «Среда»
Продолжительность: 01:38:44
Язык: Русский

Автор релиза:
Примечание: Без рекламы

Файл
Формат: MKV
Качество: WEB-DL 1080p
Видео: MPEG-4 AVC, ~ 5209 Кбит/с, 1920x804
Звук: E-AC3, 6 ch, 320 Кбит/с
Субтитры: Русские

Семпл


[+] MI
General
Unique ID                                : 108635070562936912791511630618979093606 (0x51BA5A81A5FF8A5FBA3D087F1C724C66)
Complete name                            : Мажор. Фильм (2021) WEB-DL 1080p.mkv
Format                                   : Matroska
Format version                           : Version 4
File size                                : 3.81 GiB
Duration                                 : 1 h 38 min
Overall bit rate                         : 5 531 kb/s
Encoded date                             : UTC 2021-01-02 18:26:37
Writing application                      : mkvmerge v51.0.0 ('I Wish') 64-bit
Writing library                          : libebml v1.4.0 + libmatroska v1.6.2

Video
ID                                       : 1
Format                                   : AVC
Format/Info                              : Advanced Video Codec
Format profile                           : High@L4
Format settings                          : CABAC / 5 Ref Frames
Format settings, CABAC                   : Yes
Format settings, Reference frames        : 5 frames
Codec ID                                 : V_MPEG4/ISO/AVC
Duration                                 : 1 h 38 min
Bit rate                                 : 5 209 kb/s
Nominal bit rate                         : 6 000 kb/s
Width                                    : 1 920 pixels
Height                                   : 804 pixels
Display aspect ratio                     : 2.40:1
Frame rate mode                          : Constant
Frame rate                               : 24.000 FPS
Color space                              : YUV
Chroma subsampling                       : 4:2:0
Bit depth                                : 8 bits
Scan type                                : Progressive
Bits/(Pixel*Frame)                       : 0.141
Stream size                              : 3.59 GiB (94%)
Writing library                          : x264 core 157 r2969 d4099dd
Encoding settings                        : cabac=1 / ref=5 / deblock=1:0:0 / analyse=0x3:0x133 / me=umh / subme=10 / psy=1 / psy_rd=1.00:0.00 / mixed_ref=1 / me_range=24 / chroma_me=1 / trellis=2 / 8x8dct=1 / cqm=0 / deadzone=21,11 / fast_pskip=1 / chroma_qp_offset=-2 / threads=25 / lookahead_threads=4 / sliced_threads=0 / nr=0 / decimate=1 / interlaced=0 / bluray_compat=0 / stitchable=1 / constrained_intra=0 / bframes=8 / b_pyramid=2 / b_adapt=2 / b_bias=0 / direct=3 / weightb=1 / open_gop=0 / weightp=2 / keyint=96 / keyint_min=9 / scenecut=40 / intra_refresh=0 / rc_lookahead=60 / rc=2pass / mbtree=1 / bitrate=6000 / ratetol=1.0 / qcomp=0.60 / qpmin=0 / qpmax=69 / qpstep=4 / cplxblur=20.0 / qblur=0.5 / vbv_maxrate=6600 / vbv_bufsize=1100 / nal_hrd=none / filler=0 / ip_ratio=1.40 / aq=1:1.00
Default                                  : Yes
Forced                                   : No

Audio
ID                                       : 2
Format                                   : E-AC-3
Format/Info                              : Enhanced AC-3
Commercial name                          : Dolby Digital Plus
Codec ID                                 : A_EAC3
Duration                                 : 1 h 38 min
Bit rate mode                            : Constant
Bit rate                                 : 320 kb/s
Channel(s)                               : 6 channels
Channel layout                           : L R C LFE Ls Rs
Sampling rate                            : 48.0 kHz
Frame rate                               : 31.250 FPS (1536 SPF)
Compression mode                         : Lossy
Stream size                              : 226 MiB (6%)
Language                                 : Russian
Service kind                             : Complete Main
Default                                  : Yes
Forced                                   : No

Text
ID                                       : 3
Format                                   : UTF-8
Codec ID                                 : S_TEXT/UTF8
Codec ID/Info                            : UTF-8 Plain Text
Duration                                 : 1 h 33 min
Bit rate                                 : 86 b/s
Count of elements                        : 1219
Stream size                              : 59.2 KiB (0%)
Language                                 : Russian
Default                                  : No
Forced                                   : No



Скриншоты:
[+] Всего файлов в раздаче - 1:
Мажор. Фильм (2021) WEB-DL 1080p.mkv3.81 GB

Показать еще раздачи по запросу мажор:
2021-02-26 U Мажор. Фильм (2021) WEB-DLRip-AVC от ExKinoRay | Расширенная версия 1.45 GB ↑ 116 ↓ 35
2021-01-06 U Мажор. Фильм (2021) WEB-DLRip от GeneralFilm 1.45 GB ↑ 55 ↓ 36
2021-01-06 U Мажор. Фильм (2021) WEB-DLRip от ExKinoRay 745.76 MB ↑ 70 ↓ 7
2021-01-05 U Мажор. Фильм (2021) WEB-DLRip-AVC от Files-х 1.46 GB ↑ 238 ↓ 86
2021-01-05 U Мажор. Фильм (2021) WEB-DLRip от Generalfilm | КПК 375.12 MB ↑ 36 ↓ 8
2021-01-03 U Мажор. Фильм (2021) WEBRip 746.47 MB ↑ 299 ↓ 62
2021-01-03 U Мажор. Фильм (2021) WEB-DLRip 1.46 GB ↑ 433 ↓ 149

Отзывы
Зарегистрируйтесь чтобы добавить комментарий.
Загрузите программу
  uTorrent.exe
Обратная связь
Copyleft ©