↑↓torrent.by
Поиск
Логин: Регистрация
Пароль: Восстановить пароль

Семейка Крудс: Новоселье / Сімейка Крудсів: Нова Ера / The Croods: A New Age (2020) WEB-DL-HEVC 2160p | 4K | HDR | Line | UKR

Скачать semeyka-kruds-novosele-s-meyka-v-nova-era-the-croods-a-new-age-2020-web-dl-hevc-2160p-4k-hdr-line-ukr.torrent
U Магнитная ссылка Размер: 10.46 GB Раздают: 80 Качают: 30 Добавлен: 2021-01-04 14:52:57
Семейка Крудс: Новоселье / Сімейка Крудсів: Нова Ера / The Croods: A New Age (2020) WEB-DL-HEVC 2160p | 4K | HDR | Line | UKR

Название: Семейка Крудс: Новоселье
Оригинальное название: The Croods: A New Age
Год выхода: 2020
Жанр: мультфильм, фэнтези, комедия, приключения, семейный

Режиссер: Джоэль Кроуфорд

В ролях: Николас Кейдж, Эмма Стоун, Райан Рейнольдс, Кэтрин Кинер, Клорис Личмен, Кларк Дьюк, Лесли Манн, Питер Динклэйдж, Келли Мари Трэн, Kailey Crawford

О фильме:
Такие харизматичные герои как члены клана Крудс просто не в силах усидеть на месте. Они смело идут навстречу самым головокружительным приключениям и готовы ответить непредсказуемостью и находчивостью на любой вызов судьбы.

Страна: США
Продолжительность: 01:35:14
Перевод: Профессиональный дублированный (Line / Украинский)

Файл
Кодек: H.265
Качество: WEB-DL-HEVC 2160p
Видео: MPEG-H HEVC, HDR, 3840x2160 (16:9), 23.976 fps, 14.9 Mb/s, 10 Bit
Аудио 1: AC3, 48.0 kHz, 2 ch, 192 kb/s | [DUB - Line] UKR
Аудио 2: E-AC3, 48.0 kHz, 6 ch, 640 kb/s | [Оригинал] ENG
Субтитры: украинские, английские

Семпл


[+] MI
General
Unique ID                                : 178344414278392361125889561881251147866 (0x862BE2816B938745AD0C5AF70527F05A)
Complete name                            : The.Croods.A.New.Age.(2020).WEB-DL.2160p.HDR.Ukr.Eng.mkv
Format                                   : Matroska
Format version                           : Version 4
File size                                : 10.5 GiB
Duration                                 : 1 h 35 min
Overall bit rate                         : 15.7 Mb/s
Encoded date                             : UTC 2021-01-03 11:20:53
Writing application                      : mkvmerge v8.3.0 ('Over the Horizon') 64bit
Writing library                          : libebml v1.3.1 + libmatroska v1.4.2

Video
ID                                       : 1
Format                                   : HEVC
Format/Info                              : High Efficiency Video Coding
Format profile                           : Main 10@L5@Main
Codec ID                                 : V_MPEGH/ISO/HEVC
Duration                                 : 1 h 35 min
Bit rate                                 : 14.9 Mb/s
Width                                    : 3 840 pixels
Height                                   : 2 160 pixels
Display aspect ratio                     : 16:9
Frame rate mode                          : Constant
Frame rate                               : 23.976 (24000/1001) FPS
Color space                              : YUV
Chroma subsampling                       : 4:2:0 (Type 2)
Bit depth                                : 10 bits
Bits/(Pixel*Frame)                       : 0.075
Stream size                              : 9.90 GiB (95%)
Default                                  : Yes
Forced                                   : No
Color range                              : Limited
Color primaries                          : BT.2020
Transfer characteristics                 : PQ
Matrix coefficients                      : BT.2020 non-constant
Maximum Content Light Level              : 1000 cd/m2
Maximum Frame-Average Light Level        : 347 cd/m2

Audio #1
ID                                       : 2
Format                                   : AC-3
Format/Info                              : Audio Coding 3
Commercial name                          : Dolby Digital
Codec ID                                 : A_AC3
Duration                                 : 1 h 35 min
Bit rate mode                            : Constant
Bit rate                                 : 192 kb/s
Channel(s)                               : 2 channels
Channel layout                           : L R
Sampling rate                            : 48.0 kHz
Frame rate                               : 31.250 FPS (1536 SPF)
Bit depth                                : 16 bits
Compression mode                         : Lossy
Stream size                              : 131 MiB (1%)
Title                                    : DUB (Line)
Language                                 : Ukrainian
Service kind                             : Complete Main
Default                                  : Yes
Forced                                   : No

Audio #2
ID                                       : 3
Format                                   : E-AC-3
Format/Info                              : Enhanced AC-3
Commercial name                          : Dolby Digital Plus
Codec ID                                 : A_EAC3
Duration                                 : 1 h 35 min
Bit rate mode                            : Constant
Bit rate                                 : 640 kb/s
Channel(s)                               : 6 channels
Channel layout                           : L R C LFE Ls Rs
Sampling rate                            : 48.0 kHz
Frame rate                               : 31.250 FPS (1536 SPF)
Compression mode                         : Lossy
Stream size                              : 436 MiB (4%)
Title                                    : Original
Language                                 : English
Service kind                             : Complete Main
Default                                  : No
Forced                                   : No

Text #1
ID                                       : 4
Format                                   : UTF-8
Codec ID                                 : S_TEXT/UTF8
Codec ID/Info                            : UTF-8 Plain Text
Duration                                 : 1 h 27 min
Bit rate                                 : 121 b/s
Count of elements                        : 1604
Stream size                              : 77.2 KiB (0%)
Title                                    : Full
Language                                 : Ukrainian
Default                                  : No
Forced                                   : No

Text #2
ID                                       : 5
Format                                   : UTF-8
Codec ID                                 : S_TEXT/UTF8
Codec ID/Info                            : UTF-8 Plain Text
Duration                                 : 1 h 35 min
Bit rate                                 : 88 b/s
Count of elements                        : 2402
Stream size                              : 61.9 KiB (0%)
Title                                    : SDH
Language                                 : English
Default                                  : No
Forced                                   : No



Скриншоты:
[+] Всего файлов в раздаче - 1:
The.Croods.A.New.Age.(2020).WEB-DL.2160p.HDR.Ukr.Eng.mkv10.46 GB

Показать еще раздачи по запросу семейка:
Сегодня U Семейка Крудс: Новоселье / The Croods: A New Age (2020) BDRip 2160p | 4K | HDR | D, P | iTunes 11.54 GB ↑ 29 ↓ 15
2021-02-26 U Семейка Крудс: Новоселье / The Croods: A New Age (2020) BDRemux 1080p от селезень | D, P | iTunes 23.64 GB ↑ 47 ↓ 14
2021-02-26 U Семейка Крудс: Новоселье / The Croods: A New Age (2020) BDRip-AVC | iTunes 1.91 GB ↑ 52 ↓ 21
2021-02-26 U Семейка Крудс: Новоселье / The Croods: A New Age (2020) BDRip 1080p от Ash61 | 3D-Video | halfOU | iTunes 7.87 GB ↑ 74 ↓ 16
2021-02-25 U Семейка Крудс: Новоселье / The Croods: A New Age (2020) BDRip от MegaPeer | iTunes 1.42 GB ↑ 174 ↓ 71
2021-02-25 U Семейка Крудс: Новоселье / The Croods: A New Age (2020) BDRip 720p от селезень | D, P | iTunes 4.15 GB ↑ 33 ↓ 21
2021-02-25 U Семейка Крудс: Новоселье / The Croods: A New Age (2020) BDRip 1080p от селезень | D, P | iTunes 10.56 GB ↑ 60 ↓ 48

Отзывы
Зарегистрируйтесь чтобы добавить комментарий.
Загрузите программу
  uTorrent.exe
Обратная связь
Copyleft ©