↑↓torrent.by
Поиск
Логин: Регистрация
Пароль: Восстановить пароль

Семейка Крудс: Новоселье / The Croods: A New Age (2020) WEB-DL-HEVC 2160p | 4K | HDR | HDRezka Studio

Скачать semeyka-kruds-novosele-the-croods-a-new-age-2020-web-dl-hevc-2160p-4k-hdr-hdrezka-studio.torrent
U Магнитная ссылка Размер: 10.75 GB Раздают: 127 Качают: 47 Добавлен: 2021-01-05 06:28:15
Семейка Крудс: Новоселье / The Croods: A New Age (2020) WEB-DL-HEVC 2160p | 4K | HDR | HDRezka Studio

Название: Семейка Крудс: Новоселье
Оригинальное название: The Croods: A New Age
Год выхода: 2020
Жанр: мультфильм, фэнтези, комедия, приключения, семейный
Режиссер: Джоэль Кроуфорд
В ролях: Николас Кейдж, Эмма Стоун, Райан Рейнольдс, Кэтрин Кинер, Клорис Личмен, Кларк Дьюк, Лесли Манн, Питер Динклэйдж, Келли Мари Трэн

О фильме:
Такие харизматичные герои как члены клана Крудс просто не в силах усидеть на месте. Они смело идут навстречу самым головокружительным приключениям и готовы ответить непредсказуемостью и находчивостью на любой вызов судьбы.

 
Страна: США
Студия: DreamWorks Animation
Продолжительность: 01:35:15
Перевод: Профессиональный многоголосый закадровый (HDRezka Studio)

Файл
Качество: WEB-DL-HEVC 2160p | 4K | HDR | HDRezka Studio
Видео: HEVC/H.265, 3840x2160, ~14,9 Мbps, 23.976 fps
Звук:
Аудио 1: AC3, 6 ch, 448 Kbps - Русский
Аудио 2: AC3, 2 ch, 192 Kbps - Украинский (DUB Line)
Аудио 3: E-AC3, 6 ch, 640 Kbps - Английский
Субтитры: Русские (Forced), украинские (Full), английские (SDH)

Семпл


[+] Mediainfo
Общее
Уникальный идентификатор                 : 329288161617973855583324551713987582515 (0xF7BA97D40A4FFD8DB799EA2789955A33)
Полное имя                               : The Croods_A New Age.2020.HDR.WEB-DL.2160p.mkv
Формат                                   : Matroska
Версия формата                           : Version 4
Размер файла                             : 10,8 Гбайт
Продолжительность                        : 1 ч. 35 м.
Общий поток                              : 16,2 Мбит/сек
Название фильма                          : The Croods_A New Age.2020.HDR.WEB-DL.2160p
Дата кодирования                         : UTC 2021-01-04 11:21:32
Программа кодирования                    : mkvmerge v23.0.0 ('The Bride Said No') 64-bit
Библиотека кодирования                   : libebml v1.3.6 + libmatroska v1.4.9

Видео
Идентификатор                            : 1
Формат                                   : HEVC
Формат/Информация                        : High Efficiency Video Coding
Профиль формата                          : Main 10@L5@Main
Идентификатор кодека                     : V_MPEGH/ISO/HEVC
Продолжительность                        : 1 ч. 35 м.
Битрейт                                  : 14,9 Мбит/сек
Ширина                                   : 3 840 пикселей
Высота                                   : 2 160 пикселей
Соотношение сторон                       : 16:9
Режим частоты кадров                     : Постоянный
Частота кадров                           : 23,976 (24000/1001) кадра/сек
Цветовое пространство                    : YUV
Субдискретизация насыщенности            : 4:2:0 (Type 2)
Битовая глубина                          : 10 бит
Бит/(Пиксели*Кадры)                      : 0.075
Размер потока                            : 9,90 Гбайт (92%)
Язык                                     : English
Default                                  : Да
Forced                                   : Нет
Цветовой диапазон                        : Limited
Основные цвета                           : BT.2020
Характеристики трансфера                 : PQ
Коэффициенты матрицы                     : BT.2020 non-constant
Maximum Content Light Level              : 1000 cd/m2
Maximum Frame-Average Light Level        : 347 cd/m2

Аудио #1
Идентификатор                            : 2
Формат                                   : AC-3
Формат/Информация                        : Audio Coding 3
Коммерческое название                    : Dolby Digital
Идентификатор кодека                     : A_AC3
Продолжительность                        : 1 ч. 35 м.
Вид битрейта                             : Постоянный
Битрейт                                  : 448 Кбит/сек
Каналы                                   : 6 каналов
Channel layout                           : L R C LFE Ls Rs
Частота                                  : 48,0 КГц
Частота кадров                           : 31,250 кадров/сек (1536 SPF)
Метод сжатия                             : С потерями
Размер потока                            : 305 Мбайт (3%)
Заголовок                                : MVO (HDRezka Studio)
Язык                                     : Russian
Service kind                             : Complete Main
Default                                  : Да
Forced                                   : Нет

Аудио #2
Идентификатор                            : 3
Формат                                   : AC-3
Формат/Информация                        : Audio Coding 3
Коммерческое название                    : Dolby Digital
Идентификатор кодека                     : A_AC3
Продолжительность                        : 1 ч. 35 м.
Вид битрейта                             : Постоянный
Битрейт                                  : 192 Кбит/сек
Каналы                                   : 2 канала
Channel layout                           : L R
Частота                                  : 48,0 КГц
Частота кадров                           : 31,250 кадров/сек (1536 SPF)
Метод сжатия                             : С потерями
Размер потока                            : 131 Мбайт (1%)
Заголовок                                : DUB (Line)
Язык                                     : Ukrainian
Service kind                             : Complete Main
Default                                  : Нет
Forced                                   : Нет

Аудио #3
Идентификатор                            : 4
Формат                                   : E-AC-3
Формат/Информация                        : Enhanced AC-3
Коммерческое название                    : Dolby Digital Plus
Идентификатор кодека                     : A_EAC3
Продолжительность                        : 1 ч. 35 м.
Вид битрейта                             : Постоянный
Битрейт                                  : 640 Кбит/сек
Каналы                                   : 6 каналов
Channel layout                           : L R C LFE Ls Rs
Частота                                  : 48,0 КГц
Частота кадров                           : 31,250 кадров/сек (1536 SPF)
Метод сжатия                             : С потерями
Размер потока                            : 436 Мбайт (4%)
Язык                                     : English
Service kind                             : Complete Main
Default                                  : Нет
Forced                                   : Нет

Текст #1
Идентификатор                            : 5
Формат                                   : UTF-8
Идентификатор кодека                     : S_TEXT/UTF8
Идентификатор кодека/Информация          : UTF-8 Plain Text
Продолжительность                        : 14 м. 34 с.
Битрейт                                  : 4 бит/сек
Count of elements                        : 15
Размер потока                            : 500 байт (0%)
Заголовок                                : Forced
Язык                                     : Russian
Default                                  : Да
Forced                                   : Нет

Текст #2
Идентификатор                            : 6
Формат                                   : UTF-8
Идентификатор кодека                     : S_TEXT/UTF8
Идентификатор кодека/Информация          : UTF-8 Plain Text
Продолжительность                        : 1 ч. 27 м.
Битрейт                                  : 121 бит/сек
Count of elements                        : 1604
Размер потока                            : 77,2 Кбайт (0%)
Заголовок                                : Full
Язык                                     : Ukrainian
Default                                  : Нет
Forced                                   : Нет

Текст #3
Идентификатор                            : 7
Формат                                   : UTF-8
Идентификатор кодека                     : S_TEXT/UTF8
Идентификатор кодека/Информация          : UTF-8 Plain Text
Продолжительность                        : 1 ч. 35 м.
Битрейт                                  : 88 бит/сек
Count of elements                        : 2402
Размер потока                            : 61,9 Кбайт (0%)
Заголовок                                : SDH
Язык                                     : English
Default                                  : Нет
Forced                                   : Нет  



Скриншоты:
[+] Всего файлов в раздаче - 1:
The Croods_A New Age.2020.HDR.WEB-DL.2160p.mkv10.75 GB

Показать еще раздачи по запросу семейка:
2021-01-05 U Семейка Крудс: Новоселье / The Croods: A New Age (2020) WEB-DLRip-AVC | HDRezka Studio 743.88 MB ↑ 68 ↓ 20
2021-01-04 U Семейка Крудс: Новоселье / Сімейка Крудсів: Нова Ера / The Croods: A New Age (2020) WEB-DL-HEVC 2160p | 4K | HDR | Line | UKR 10.46 GB ↑ 76 ↓ 30
2021-01-04 U Семейка Крудс: Новоселье / The Croods: A New Age (2020) WEB-DLRip от MegaPeer | HDRezka Studio 1.46 GB ↑ 407 ↓ 152
2021-01-04 U Семейка Крудс: Новоселье / The Croods: A New Age (2020) WEB-DL 1080p от MegaPeer | HDRezka Studio 5.92 GB ↑ 413 ↓ 233
2021-01-03 U Семейка Крудс: Новоселье / Сімейка Крудсів: Нова Ера / The Croods: A New Age (2020) WEB-DL 1080p | Line | UKR 5.74 GB ↑ 121 ↓ 122
2021-01-03 U Семейка Крудс: Новоселье / Сімейка Крудсів: Нова Ера / The Croods: A New Age (2020) WEB-DLRip | Line | UKR 1.47 GB ↑ 159 ↓ 78
2020-12-23 U Семейка Бигфутов / Bigfoot Family (2020) HDRip-AVC | iTunes 2.06 GB ↑ 35 ↓ 4

Отзывы
Зарегистрируйтесь чтобы добавить комментарий.
Загрузите программу
  uTorrent.exe
Обратная связь
Copyleft ©