↑↓torrent.by
Поиск
Логин: Регистрация
Пароль: Восстановить пароль

Семейка Крудс: Новоселье / The Croods: A New Age (2020) WEB-DLRip-AVC | HDRezka Studio

Скачать semeyka-kruds-novosele-the-croods-a-new-age-2020-web-dlrip-avc-hdrezka-studio.torrent
U Магнитная ссылка Размер: 743.88 MB Раздают: 68 Качают: 21 Добавлен: 2021-01-05 06:29:01
Семейка Крудс: Новоселье / The Croods: A New Age (2020) WEB-DLRip-AVC | HDRezka Studio

Информация
Название: Семейка Крудс: Новоселье
Оригинальное название: The Croods: A New Age
Год выхода: 2020
Жанр:  Мультфильм, фэнтези, комедия, приключения, семейный

Режиссер: Джоэль Кроуфорд
Роли озвучивают: Николас Кейдж, Эмма Стоун, Райан Рейнольдс, Кэтрин Кинер, Клорис Личмен, Кларк Дьюк, Лесли Манн, Питер Динклэйдж, Келли Мари Трэн, Кайли Кроуфорд

Описание:
Такие харизматичные герои как члены клана Крудс просто не в силах усидеть на месте. Они смело идут навстречу самым головокружительным приключениям и готовы ответить непредсказуемостью и находчивостью на любой вызов судьбы.

Страна: США
Студия: DreamWorks Animation
Продолжительность: 01:35:14
Перевод: Профессиональный (многоголосый, закадровый) | HDRezka Studio
Субтитры: Русские (форсированные), английские (SDH)

Файл
Формат: Matroska
Качество: WEB-DLRip-AVC
Видео: 720x306 at 23.976 fps, x264@L4.1, ~1013 kbps, 0.192 bpp
Аудио: AAC, 2 ch, ~76 kbps - | Русский | -
Формат субтитров: softsub (SRT)

***Релиз от: -=DoMiNo=-


[+] Скрытый текст
General
Format                      : Matroska
Format version              : Version 4
File size                   : 744 MiB
Duration                    : 1 h 35 min
Overall bit rate            : 1 092 kb/s
Movie name                  : Семейка Крудс.-Новоселье.(2020).WEB-DLRip-AVC.[-=DoMiNo=-]
Encoded date                : UTC 2021-01-04 13:28:55
Writing application         : mkvmerge v51.0.0 ('I Wish') 64-bit
Writing library             : libebml v1.4.0 + libmatroska v1.6.2
Cover                       : Yes
Attachments                 : Cover.jpg / Cover 2.jpg

Video
ID                          : 1
Format                      : AVC
Format/Info                 : Advanced Video Codec
Format profile              : High@L4.1
Format settings             : CABAC / 15 Ref Frames
Format settings, CABAC      : Yes
Format settings, Reference  : 15 frames
Codec ID                    : V_MPEG4/ISO/AVC
Duration                    : 1 h 35 min
Bit rate                    : 1 013 kb/s
Width                       : 720 pixels
Height                      : 306 pixels
Display aspect ratio        : 2.35:1
Frame rate mode             : Constant
Frame rate                  : 23.976 (24000/1001) FPS
Color space                 : YUV
Chroma subsampling          : 4:2:0
Bit depth                   : 8 bits
Scan type                   : Progressive
Bits/(Pixel*Frame)          : 0.192
Stream size                 : 689 MiB (93%)
Title                       : -=DoMiNo=-
Writing library             : x264 core 161 r3027 4121277
Encoding settings           : cabac=1 / ref=15 / deblock=1:-2:-1 / analyse=0x3:0x133 / me=umh / subme=10 / psy=1 / psy_rd=1.00:0.15 / mixed_ref=1 / me_range=32 / chroma_me=1 / trellis=2 / 8x8dct=1 / cqm=0 / deadzone=21,11 / fast_pskip=0 / chroma_qp_offset=-3 / threads=6 / lookahead_threads=1 / sliced_threads=0 / nr=0 / decimate=0 / interlaced=0 / bluray_compat=0 / constrained_intra=0 / bframes=10 / b_pyramid=2 / b_adapt=2 / b_bias=0 / direct=3 / weightb=1 / open_gop=0 / weightp=2 / keyint=250 / keyint_min=23 / scenecut=40 / intra_refresh=0 / rc_lookahead=60 / rc=2pass / mbtree=0 / bitrate=1013 / ratetol=1.0 / qcomp=0.65 / qpmin=0 / qpmax=69 / qpstep=4 / cplxblur=20.0 / qblur=0.5 / vbv_maxrate=50000 / vbv_bufsize=62500 / nal_hrd=none / filler=0 / ip_ratio=1.40 / pb_ratio=1.30 / aq=2:1.00
Language                    : English
Default                     : Yes
Forced                      : No
Color range                 : Limited
Color primaries             : BT.709
Transfer characteristics    : BT.709
Matrix coefficients         : BT.709

Audio
ID                          : 2
Format                      : AAC LC SBR
Format/Info                 : Advanced Audio Codec Low Complexity with Spectral Band Replication
Commercial name             : HE-AAC
Format settings             : Explicit
Codec ID                    : A_AAC-2
Duration                    : 1 h 35 min
Bit rate                    : 78.7 kb/s
Channel(s)                  : 2 channels
Channel layout              : L R
Sampling rate               : 48.0 kHz
Frame rate                  : 23.438 FPS (2048 SPF)
Compression mode            : Lossy
Stream size                 : 53.6 MiB (7%)
Title                       : MVO_[HDRezka Studio]
Language                    : Russian
Default                     : Yes
Forced                      : No

Text #1
ID                          : 3
Format                      : UTF-8
Codec ID                    : S_TEXT/UTF8
Codec ID/Info               : UTF-8 Plain Text
Duration                    : 14 min 34 s
Bit rate                    : 4 b/s
Count of elements           : 15
Stream size                 : 500 Bytes (0%)
Title                       : Forced
Language                    : Russian
Default                     : Yes
Forced                      : No

Text #2
ID                          : 4
Format                      : UTF-8
Codec ID                    : S_TEXT/UTF8
Codec ID/Info               : UTF-8 Plain Text
Duration                    : 1 h 35 min
Bit rate                    : 87 b/s
Count of elements           : 2402
Stream size                 : 61.2 KiB (0%)
Title                       : SDH
Language                    : English
Default                     : No
Forced                      : No

Menu
00:00:00.000                : :Глава 01
00:07:00.000                : :Глава 02
00:14:00.000                : :Глава 03
00:21:00.000                : :Глава 04
00:28:00.000                : :Глава 05
00:35:00.000                : :Глава 06
00:42:00.000                : :Глава 07
00:49:00.000                : :Глава 08
00:56:00.000                : :Глава 09
01:03:00.000                : :Глава 10
01:10:00.000                : :Глава 11
01:17:00.000                : :Глава 12
01:24:00.000                : :Глава 13
01:31:00.000                : :Глава 14



Скриншоты:
[+] Всего файлов в раздаче - 1:
Семейка Крудс.-Новоселье.(2020).WEB-DLRip-AVC.[-=DoMiNo=-].mkv743.88 MB

Показать еще раздачи по запросу семейка:
2021-01-05 U Семейка Крудс: Новоселье / The Croods: A New Age (2020) WEB-DL-HEVC 2160p | 4K | HDR | HDRezka Studio 10.75 GB ↑ 131 ↓ 48
2021-01-04 U Семейка Крудс: Новоселье / Сімейка Крудсів: Нова Ера / The Croods: A New Age (2020) WEB-DL-HEVC 2160p | 4K | HDR | Line | UKR 10.46 GB ↑ 76 ↓ 30
2021-01-04 U Семейка Крудс: Новоселье / The Croods: A New Age (2020) WEB-DLRip от MegaPeer | HDRezka Studio 1.46 GB ↑ 425 ↓ 153
2021-01-04 U Семейка Крудс: Новоселье / The Croods: A New Age (2020) WEB-DL 1080p от MegaPeer | HDRezka Studio 5.92 GB ↑ 436 ↓ 233
2021-01-03 U Семейка Крудс: Новоселье / Сімейка Крудсів: Нова Ера / The Croods: A New Age (2020) WEB-DL 1080p | Line | UKR 5.74 GB ↑ 124 ↓ 122
2021-01-03 U Семейка Крудс: Новоселье / Сімейка Крудсів: Нова Ера / The Croods: A New Age (2020) WEB-DLRip | Line | UKR 1.47 GB ↑ 161 ↓ 80
2020-12-23 U Семейка Бигфутов / Bigfoot Family (2020) HDRip-AVC | iTunes 2.06 GB ↑ 36 ↓ 4

Отзывы
Зарегистрируйтесь чтобы добавить комментарий.
Загрузите программу
  uTorrent.exe
Обратная связь
Copyleft ©