↑↓torrent.by
Поиск
Логин: Регистрация
Пароль: Восстановить пароль

Мини Макс / Приключения чокнутого профессора (2020) WEBRip-AVC от Files-х

Скачать mini-maks-priklyucheniya-choknutogo-professora-2020-webrip-avc-ot-files-h.torrent
U Магнитная ссылка Размер: 1.45 GB Раздают: 39 Качают: 9 Добавлен: 2021-01-05 06:30:07
Мини Макс / Приключения чокнутого профессора (2020) WEBRip-AVC от Files-х

Оригинальное название: Мини Макс (Приключения чокнутого профессора)
Год выпуска: 2020
Жанр:  Фантастика, комедия, приключения, семейный
Режиссер: Олег Асадулин
В ролях: Пётр Фёдоров, Артём Фадеев, Марк Богатырёв, Женя Малахова, Ирина Розанова, Юрий Стоянов, Ян Цапник, Ирина Медведева, Платон Каменев, Иван Титяев

О фильме: Молодой амбициозный учёный Максим Минаев на пороге грандиозного открытия: он разработал способ менять человеческие ткани на молекулярном уровне, а значит – улучшать тело, способности и таланты. Однако эксперимент оборачивается провалом - Макс превратился в крошечного десятисантиметрового человечка без всяких суперспособностей... Любимая девушка его бросила, а лучший друг оказался предателем. Единственный, кто может помочь Максу - это 12-летний мальчик, прикованный к инвалидному креслу.

Выпущено: Россия, АНО "Интерфест"
Продолжительность: 01:21:00
Язык: Русский

Файл
Кодек: h.264
Качество: WEBRip-AVC
Видео: MPEG-4 AVC, ~ 2379 Кбит/с, 1024x576, 25 кадр/с
Аудио: AC3, 2 ch, 192 Кбит/с
Язык: Русский
Субтитры: Нет

Релиз:


[+] MediaInfo:

General
Unique ID                                : 188969189030288473309804637625452866237 (0x8E2A245846EAE5A9B3DCE01D2F5C2ABD)
Complete name                            : F:Мини Макс.(2018).WEBRip.(AVC).by.Серый1779.Files-x.mkv
Format                                   : Matroska
Format version                           : Version 2
File size                                : 1.45 GiB
Duration                                 : 1 h 21 min
Overall bit rate                         : 2 571 kb/s
Encoded date                             : UTC 2021-01-04 09:08:17
Writing application                      : mkvmerge v7.8.0 ('River Man') 32bit built on Apr  3 2015 12:11:22
Writing library                          : libebml v1.3.1 + libmatroska v1.4.2

Video
ID                                       : 1
Format                                   : AVC
Format/Info                              : Advanced Video Codec
Format profile                           : High@L4.1
Format settings                          : CABAC / 9 Ref Frames
Format settings, CABAC                   : Yes
Format settings, RefFrames               : 9 frames
Codec ID                                 : V_MPEG4/ISO/AVC
Duration                                 : 1 h 21 min
Bit rate                                 : 2 379 kb/s
Width                                    : 1 024 pixels
Height                                   : 576 pixels
Display aspect ratio                     : 16:9
Frame rate mode                          : Constant
Frame rate                               : 25.000 FPS
Color space                              : YUV
Chroma subsampling                       : 4:2:0
Bit depth                                : 8 bits
Scan type                                : Progressive
Bits/(Pixel*Frame)                       : 0.161
Stream size                              : 1.32 GiB (91%)
Writing library                          : x264 core 146 r2538 121396c
Encoding settings                        : cabac=1 / ref=9 / deblock=1:-2:-1 / analyse=0x3:0x133 / me=umh / subme=9 / psy=1 / psy_rd=1.00:0.15 / mixed_ref=1 / me_range=32 / chroma_me=1 / trellis=2 / 8x8dct=1 / cqm=0 / deadzone=21,11 / fast_pskip=0 / chroma_qp_offset=-3 / threads=18 / lookahead_threads=3 / sliced_threads=0 / nr=0 / decimate=1 / interlaced=0 / bluray_compat=0 / constrained_intra=0 / bframes=9 / b_pyramid=2 / b_adapt=2 / b_bias=0 / direct=3 / weightb=1 / open_gop=0 / weightp=2 / keyint=250 / keyint_min=25 / scenecut=40 / intra_refresh=0 / rc=2pass / mbtree=0 / bitrate=2379 / ratetol=1.0 / qcomp=0.60 / qpmin=0 / qpmax=69 / qpstep=4 / cplxblur=20.0 / qblur=0.5 / ip_ratio=1.40 / pb_ratio=1.30 / aq=2:1.00
Default                                  : Yes
Forced                                   : No
Color range                              : Limited
Color primaries                          : BT.709
Transfer characteristics                 : BT.709
Matrix coefficients                      : BT.709

Audio
ID                                       : 2
Format                                   : AC-3
Format/Info                              : Audio Coding 3
Format settings, Endianness              : Big
Codec ID                                 : A_AC3
Duration                                 : 1 h 21 min
Bit rate mode                            : Constant
Bit rate                                 : 192 kb/s
Channel(s)                               : 2 channels
Channel positions                        : Front: L R
Sampling rate                            : 48.0 kHz
Frame rate                               : 31.250 FPS (1536 SPF)
Bit depth                                : 16 bits
Compression mode                         : Lossy
Stream size                              : 111 MiB (7%)
Service kind                             : Complete Main
Default                                  : Yes
Forced                                   : No




Скриншоты:
[+] Всего файлов в раздаче - 1:
Мини Макс.(2018).WEBRip.(AVC).by.Серый1779.Files-x.mkv1.45 GB

Похожие раздачи по запросу - мини:
2021-01-05 U Мини Макс / Приключения чокнутого профессора (2020) WEBRip от Files-х 1.37 GB ↑ 42 ↓ 10
2021-01-04 U Мини Макс (2020) WEBRip 1.46 GB ↑ 100 ↓ 68
2021-01-04 U Мини Макс (2020) WEBRip 1080p 2.60 GB ↑ 81 ↓ 56

Отзывы
Зарегистрируйтесь чтобы добавить комментарий.
Загрузите программу
  uTorrent.exe
Обратная связь
Copyleft ©