↑↓torrent.by
Поиск
Логин: Регистрация
Пароль: Восстановить пароль

Мажор. Фильм (2021) WEB-DLRip от GeneralFilm

Скачать mazhor-film-2021-web-dlrip-ot-generalfilm.torrent
U Магнитная ссылка Размер: 1.45 GB Раздают: 55 Качают: 36 Добавлен: 2021-01-06 03:48:14
Мажор. Фильм (2021) WEB-DLRip от GeneralFilm

Год выпуска: 2021
Жанр:  Боевик, комедия
Выпущено: Россия, Продюсерская компания «Среда»
Режиссер: Максим Полинский, Николай Булыгин
В ролях: Павел Прилучный, Евгений Стычкин, Агния Дитковските, Дарина Эрвин, Даниил Воробьёв, Владимир Селезнев, Дмитрий Шевченко, Александр Обласов, Игорь Жижикин, Павел Чинарёв

О фильме: Мажор виртуозно сбегает из тюрьмы и начинает новую жизнь. Новую сладкую жизнь! Соколовский вливается в светскую тусовку, где все сидят на новом синтетическом наркотике, и его снова окружают тачки, виллы и топ-модели. Друзья, враги и ФСБ идут по следу Мажора, пытаясь понять, какую игру он затеял и на чьей он стороне. Игорь же пытается понять, кто он сам — предатель, святой или всё тот же… Мажор?

Качество: WEB-DLRip
Видео: XviD build 73, 720x304 (2.35:1), 24.000 fps, 1715 Kbps (0.327 bit/pixel)
Аудио: 48.0 kHz, AC3, 6 ch, 384 kbps
Продолжительность: 01:38:44
Перевод: Не требуется [Русский]
Cубтитры: Русские вшитые (на иностранную речь)

Релиз:


[+] MediaInfo

General
Complete name               : D:RazdachiMazhor.Film.2021.WEB-DLRip.GeneralFilm.avi
Format                      : AVI
Format/Info                 : Audio Video Interleave
File size                   : 1.45 GiB
Duration                    : 1 h 38 min
Overall bit rate            : 2 109 kb/s
Writing application         : VirtualDubMod 1.5.10.3 | www.virtualdub-fr.org || (build 2550/release)
Writing library             : VirtualDubMod build 2550/release

Video
ID                          : 0
Format                      : MPEG-4 Visual
Format profile              : Advanced Simple@L5
Format settings             : BVOP1 / Custom Matrix
Format settings, BVOP       : 1
Format settings, QPel       : No
Format settings, GMC        : No warppoints
Format settings, Matrix     : Custom
Codec ID                    : XVID
Codec ID/Hint               : XviD
Duration                    : 1 h 38 min
Bit rate                    : 1 715 kb/s
Width                       : 720 pixels
Height                      : 304 pixels
Display aspect ratio        : 2.35:1
Frame rate                  : 24.000 FPS
Color space                 : YUV
Chroma subsampling          : 4:2:0
Bit depth                   : 8 bits
Scan type                   : Progressive
Compression mode            : Lossy
Bits/(Pixel*Frame)          : 0.327
Stream size                 : 1.18 GiB (81%)
Writing library             : XviD 73

Audio
ID                          : 1
Format                      : AC-3
Format/Info                 : Audio Coding 3
Commercial name             : Dolby Digital
Codec ID                    : 2000
Duration                    : 1 h 38 min
Bit rate mode               : Constant
Bit rate                    : 384 kb/s
Channel(s)                  : 6 channels
Channel layout              : L R C LFE Ls Rs
Sampling rate               : 48.0 kHz
Frame rate                  : 31.250 FPS (1536 SPF)
Compression mode            : Lossy
Stream size                 : 271 MiB (18%)
Alignment                   : Split across interleaves
Interleave, duration        : 42  ms (1.00 video frame)
Interleave, preload duratio : 500  ms
Service kind                : Complete Main



Скриншоты:
[+] Всего файлов в раздаче - 1:
Mazhor.Film.2021.WEB-DLRip.GeneralFilm.avi1.45 GB

Показать еще раздачи по запросу мажор:
2021-02-26 U Мажор. Фильм (2021) WEB-DLRip-AVC от ExKinoRay | Расширенная версия 1.45 GB ↑ 116 ↓ 35
2021-01-06 U Мажор. Фильм (2021) WEB-DLRip от ExKinoRay 745.76 MB ↑ 70 ↓ 7
2021-01-05 U Мажор. Фильм (2021) WEB-DLRip-AVC от Files-х 1.46 GB ↑ 239 ↓ 86
2021-01-05 U Мажор. Фильм (2021) WEB-DLRip от Generalfilm | КПК 375.12 MB ↑ 36 ↓ 8
2021-01-03 U Мажор. Фильм (2021) WEBRip 746.47 MB ↑ 299 ↓ 62
2021-01-03 U Мажор. Фильм (2021) WEB-DLRip 1.46 GB ↑ 433 ↓ 149
2021-01-03 U Мажор. Фильм (2021) WEB-DL 720p от ExKinoRay 2.29 GB ↑ 1001 ↓ 291

Отзывы
Зарегистрируйтесь чтобы добавить комментарий.
Загрузите программу
  uTorrent.exe
Обратная связь
Copyleft ©