↑↓torrent.by
Поиск
Логин: Регистрация
Пароль: Восстановить пароль

На острие (2020) WEB-DL 1080p | iTunes

Скачать na-ostrie-2020-web-dl-1080p-itunes.torrent
U Магнитная ссылка Размер: 3.92 GB Раздают: 513 Качают: 150 Добавлен: 2021-01-08 03:05:23
На острие (2020) WEB-DL 1080p | iTunes

Название: На острие
Год выхода: 2020
Жанр: Драма, спорт
Страна: Россия
Перевод: Не требуется
Продолжительность: 01:53:49
Режиссер: Эдуард Бордуков
В ролях: Светлана Ходченкова, Стася Милославская, Сергей Пускепалис, Алексей Барабаш, Евгений Сытый, Софья Эрнст, Хильда Кармен, Кирилл Дегтярь, Павел Колобков, Мария Киселева и др.

О фильме: Лучшая саблистка мира, Александра Покровская, знаменита, богата и счастлива. Чтобы войти в историю, ей остается сделать последний шаг – взять олимпийское золото. Но путь ей преграждает девятнадцатилетняя Кира Егорова, девушка из провинции, в одночасье покорившая Москву. Кира побеждает на всех соревнованиях и не сходит с обложек глянцевых журналов. Ее цель – занять место Покровской. Начинается отчаянная схватка не только на турнирах, но и в жизни. Обе одержимы, и, кажется, остановить их не может ничто. Весь мир, затаив дыхание, наблюдает за сверканием острых клинков. И все очевиднее: эта яростная борьба уже зашла слишком далеко...

Файл
Качество: WEB-DL 1080p
Видео: MPEG-4 AVC, 1920x804, 4543 kbps, 24,000 fps
Звук: русский, AC3, 5.1 ch, 48 kHz, 384 kbps
Субтитры: нет

Релиз:


[+] MI
Общее
Уникальный идентификатор                 : 236322893043996836361838832224657357748 (0xB1CA22354C54F232BF89252F735E3BB4)
Полное имя                               : C:UtorrentNaОstrieWEBDL1080p.mkv
Формат                                   : Matroska
Версия формата                           : Version 4 / Version 2
Размер файла                             : 3,92 Гбайт
Продолжительность                        : 1 ч. 53 м.
Общий поток                              : 4929 Кбит/сек
Дата кодирования                         : UTC 2021-01-07 19:52:39
Программа кодирования                    : mkvmerge v9.5.0 ('Quiet Fire') 64bit
Библиотека кодирования                   : libebml v1.3.4 + libmatroska v1.4.5

Видео
Идентификатор                            : 1
Формат                                   : AVC
Формат/Информация                        : Advanced Video Codec
Профиль формата                          : High@L4
Настройки формата                        : CABAC / 5 Ref Frames
Параметр CABAC формата                   : Да
Параметр RefFrames формата               : 5 кадров
Идентификатор кодека                     : V_MPEG4/ISO/AVC
Продолжительность                        : 1 ч. 53 м.
Битрейт                                  : 4543 Кбит/сек
Ширина                                   : 1920 пикселей
Высота                                   : 804 пикселя
Соотношение сторон                       : 2,40:1
Режим частоты кадров                     : Постоянный
Частота кадров                           : 24,000 кадра/сек
Цветовое пространство                    : YUV
Субдискретизация насыщенности            : 4:2:0
Битовая глубина                          : 8 бит
Тип развёртки                            : Прогрессивная
Бит/(Пиксели*Кадры)                      : 0.123
Размер потока                            : 3,61 Гбайт (92%)
Язык                                     : Russian
Default                                  : Да
Forced                                   : Нет
Цветовой диапазон                        : Limited
Основные цвета                           : BT.709
Характеристики трансфера                 : BT.709
Коэффициенты матрицы                     : BT.709

Аудио
Идентификатор                            : 2
Формат                                   : AC-3
Формат/Информация                        : Audio Coding 3
Параметр Endianness формата              : Big
Идентификатор кодека                     : A_AC3
Продолжительность                        : 1 ч. 53 м.
Вид битрейта                             : Постоянный
Битрейт                                  : 384 Кбит/сек
Каналы                                   : 6 каналов
Расположение каналов                     : Front: L C R, Side: L R, LFE
Частота                                  : 48,0 КГц
Частота кадров                           : 31,250 кадров/сек (1536 SPF)
Битовая глубина                          : 16 бит
Метод сжатия                             : С потерями
Размер потока                            : 313 Мбайт (8%)
Язык                                     : Russian
Default                                  : Да
Forced                                   : Нет

Меню
00:00:00.000                             : en:Глава 1
00:08:59.750                             : en:Глава 2
00:14:27.750                             : en:Глава 3
00:21:54.083                             : en:Глава 4
00:31:37.541                             : en:Глава 5
00:38:10.499                             : en:Глава 6
00:43:14.124                             : en:Глава 7
00:53:39.874                             : en:Глава 8
01:01:29.749                             : en:Глава 9
01:05:23.790                             : en:Глава 10
01:14:43.498                             : en:Глава 11
01:20:36.873                             : en:Глава 12
01:25:15.080                             : en:Глава 13
01:34:39.537                             : en:Глава 14
01:46:11.369                             : en:Глава 15



Скриншоты:
[+] Всего файлов в раздаче - 1:
NaОstrieWEBDL1080p.mkv3.92 GB

Показать еще раздачи по запросу острие:
2021-01-09 U На острие (2020) WEB-DLRip-AVC от Files-х | iTunes 1.46 GB ↑ 245 ↓ 79
2021-01-09 U На острие (2020) WEB-DLRip 720p от SuperMin | iTunes 2.69 GB ↑ 80 ↓ 31
2021-01-08 U На острие (2020) WEB-DLRip-AVC от ExKinoRay | iTunes 744.65 MB ↑ 170 ↓ 44
2021-01-08 U На острие (2020) WEB-DLRip от GeneralFilm | iTunes 746.56 MB ↑ 223 ↓ 54
2021-01-08 U На острие (2020) WEB-DLRip от GeneralFilm | iTunes 1.46 GB ↑ 78 ↓ 41
2021-01-08 U На острие (2020) WEB-DLRip от MegaPeer | iTunes 1.46 GB ↑ 94 ↓ 32
2018-07-30 U Григорий Шаргородский - Грани страха 2. Острие ужаса (2018) MP3 371.33 MB ↑ 171 ↓ 24

Отзывы
Зарегистрируйтесь чтобы добавить комментарий.
Загрузите программу
  uTorrent.exe
Обратная связь
Copyleft ©