↑↓torrent.by
Поиск
Логин: Регистрация
Пароль: Восстановить пароль

Мистер Бин / Mr. Bean [S01] (1990-1995) DVDRip-AVC | P

Скачать mister-bin-mr-bean-s01-1990-1995-dvdrip-avc-p.torrent
U Магнитная ссылка Размер: 8.00 GB Раздают: 45 Качают: 31 Добавлен: 2021-01-08 03:07:35
Мистер Бин / Mr. Bean [S01] (1990-1995) DVDRip-AVC | P

Дата/Год выпуска: 1990-1995
Страна: Великобритания
Жанр:  Ситуационная комедия
Продолжительность: 6:00:31
Перевод: Профессиональный (многоголосый закадровый)
Русские субтитры: есть

Формат субтитров: softsub (SRT)
Оригинальная аудиодорожка: английская
Режиссер: Джон Биркин / John Birkin, Ховард Дэйвис / John Howard Davies, Пол Вейланд / Paul Weiland

Описание: Мистер Бин - личность выдающаяся по количеству глупейших ситуаций, в которых он оказывается, и по оригинальности методов, с помощью которых он из этих ситуаций выкручивается.
Идет ли он в библиотеку, сдает ли экзамены, собирается ли пообедать или прыгнуть с вышки в бассейне, заезжает ли он на автостоянку или раздевается на пляже, - редко кто сделает это так смешно и остроумно, как мистер Бин.

Доп. информация: Благодаря правильному деинтерлейсу QTGMC в этом релизе сохранена правильная плавность воспроизведения видео - 50 кадров в секунду. Такая же плавность видео присутствует на DVD при просмотре на компьютере. Но не все серии имеют 50 кадров в секунду: серии 08 и 09 были сняты на кинопленку в стандартные 25 кадров в секунду и поэтому эти серии здесь закодированы в 25 кадров. Так же в некоторых эпизодах есть фрагменты видео, снятые в 25 кадров.
Исправлен межканальный рассинхрон русской озвучки: 1-13 эпизоды 13 мс, 14 эпизод 513 мс.

Сэмпл: http://sendfile.su/1589339

Качество: DVDRip-AVC
Формат: MKV
Видео: x264 | 674-694х568-572 (SAR 718-740x568-572) | 25/50 fps | 8 bits | 1840-3388 kbps
Аудио 01:  | MVO | AC3 | 48 KHz | Dual Mono | 192 kbps | Профессиональный (многоголосый закадровый) | R5
Аудио 02:  | AC3 | 48 KHz | 2.0 | 224 kbps
Субтитры 01:  | softsub (SRT)
Субтитры 02:  | softsub (SRT)
Субтитры 03:  | softsub (SRT) | SDH
[+] Список выпусков/серий
01. Мистер Бин (Mr. Bean)
02. Возвращение Мистера Бина (The Return of Mr. Bean)
03. Проклятие Мистера Бина (The Curse of Mr. Bean)
04. Мистер Бин выходит в город (Mr. Bean Goes to Town)
05. Мистер Бин и его неприятности (The Trouble with Mr. Bean)
06. Мистер Бин снова в пути (Mr. Bean Rides Again)
07. С Рождеством Вас, Мистер Бин (Merry Christmas, Mr. Bean)
08. Мистер Бин в комнате 426 (Mr. Bean in Room 426)
09. Сделай сам, Мистер Бин (Do-It-Yourself Mr. Bean)
10. Подумайте о детях, Мистер Бин (Mind the Baby, Mr. Bean)
11. Снова в школу, Мистер Бин (Back to School Mr. Bean)
12. Ваша подача, Мистер Бин (Tee Off, Mr. Bean)
13. Спокойной ночи, Мистер Бин (Goodnight Mr. Bean)
14. Стрижка от Мистера Бина лондонского (Hair by Mr. Bean of London)

Незаписанные эскизы (Unaired sketches):
01. Библиотека (The Library)
02. Автобусная остановка (The Bus Stop)



[+] MediaInfo первой серии
Общее
Уникальный идентификатор                 : 136458479790750743933207535400286080626 (0x66A8F27E48F825E9F75D2C366432CE72)
Полное имя                               : D:Mr.Bean.1990-1995.DVDRip.AVC.Rus.Eng1.Mr.Bean.mkv
Формат                                   : Matroska
Версия формата                           : Version 4
Размер файла                             : 561 Мбайт
Продолжительность                        : 24 м. 24 с.
Общий поток                              : 3 213 Кбит/сек
Дата кодирования                         : UTC 2020-06-28 07:32:29
Программа кодирования                    : mkvmerge v48.0.0 ('Fortress Around Your Heart') 64-bit
Библиотека кодирования                   : libebml v1.4.0 + libmatroska v1.6.0

Видео
Идентификатор                            : 1
Формат                                   : AVC
Формат/Информация                        : Advanced Video Codec
Профиль формата                          : High@L3.1
Настройки формата                        : CABAC / 11 Ref Frames
Параметр CABAC формата                   : Да
Параметр RefFrames формата               : 11 кадров
Идентификатор кодека                     : V_MPEG4/ISO/AVC
Продолжительность                        : 24 м. 24 с.
Битрейт                                  : 2 793 Кбит/сек
Ширина                                   : 674 пикселя
Высота                                   : 568 пикселей
Соотношение сторон                       : 5:4
Режим частоты кадров                     : Постоянный
Частота кадров                           : 50,000 кадров/сек
Цветовое пространство                    : YUV
Субдискретизация насыщенности            : 4:2:0
Битовая глубина                          : 8 бит
Тип развёртки                            : Прогрессивная
Бит/(Пиксели*Кадры)                      : 0.146
Размер потока                            : 487 Мбайт (87%)
Библиотека кодирования                   : x264 core 160 r3000 33f9e14
Настройки программы                      : cabac=1 / ref=11 / deblock=1:0:0 / analyse=0x3:0x133 / me=umh / subme=11 / psy=1 / psy_rd=0.00:0.00 / mixed_ref=1 / me_range=50 / chroma_me=1 / trellis=2 / 8x8dct=1 / cqm=0 / deadzone=21,11 / fast_pskip=1 / chroma_qp_offset=0 / threads=9 / lookahead_threads=1 / sliced_threads=0 / nr=0 / decimate=1 / interlaced=0 / bluray_compat=0 / constrained_intra=0 / bframes=6 / b_pyramid=2 / b_adapt=2 / b_bias=0 / direct=3 / weightb=1 / open_gop=0 / weightp=2 / keyint=500 / keyint_min=50 / scenecut=40 / intra_refresh=0 / rc_lookahead=60 / rc=crf / mbtree=0 / crf=16.0 / qcomp=0.60 / qpmin=0 / qpmax=69 / qpstep=4 / vbv_maxrate=6800 / vbv_bufsize=1000 / crf_max=0.0 / nal_hrd=none / filler=0 / ip_ratio=1.40 / pb_ratio=1.30 / aq=2:1.00
Язык                                     : English
Default                                  : Да
Forced                                   : Нет
Цветовой диапазон                        : Limited
Основные цвета                           : BT.601 PAL
Характеристики трансфера                 : BT.470 System B/G
Коэффициенты матрицы                     : BT.470 System B/G

Аудио #1
Идентификатор                            : 2
Формат                                   : AC-3
Формат/Информация                        : Audio Coding 3
Коммерческое название                    : Dolby Digital
Идентификатор кодека                     : A_AC3
Продолжительность                        : 24 м. 23 с.
Вид битрейта                             : Постоянный
Битрейт                                  : 192 Кбит/сек
Каналы                                   : 2 канала
Channel layout                           : L R
Частота                                  : 48,0 КГц
Частота кадров                           : 31,250 кадров/сек (1536 SPF)
Метод сжатия                             : С потерями
Размер потока                            : 33,5 Мбайт (6%)
Заголовок                                : MVO | R5
Язык                                     : Russian
Service kind                             : Complete Main
Default                                  : Да
Forced                                   : Нет

Аудио #2
Идентификатор                            : 3
Формат                                   : AC-3
Формат/Информация                        : Audio Coding 3
Коммерческое название                    : Dolby Digital
Идентификатор кодека                     : A_AC3
Продолжительность                        : 24 м. 23 с.
Вид битрейта                             : Постоянный
Битрейт                                  : 224 Кбит/сек
Каналы                                   : 2 канала
Channel layout                           : L R
Частота                                  : 48,0 КГц
Частота кадров                           : 31,250 кадров/сек (1536 SPF)
Метод сжатия                             : С потерями
Размер потока                            : 39,1 Мбайт (7%)
Язык                                     : English
Service kind                             : Complete Main
Default                                  : Нет
Forced                                   : Нет

Текст #1
Идентификатор                            : 4
Формат                                   : UTF-8
Идентификатор кодека                     : S_TEXT/UTF8
Идентификатор кодека/Информация          : UTF-8 Plain Text
Продолжительность                        : 9 м. 40 с.
Битрейт                                  : 15 бит/сек
Count of elements                        : 21
Размер потока                            : 1,12 Кбайт (0%)
Язык                                     : Russian
Default                                  : Нет
Forced                                   : Нет

Текст #2
Идентификатор                            : 5
Формат                                   : UTF-8
Идентификатор кодека                     : S_TEXT/UTF8
Идентификатор кодека/Информация          : UTF-8 Plain Text
Продолжительность                        : 21 м. 51 с.
Битрейт                                  : 6 бит/сек
Count of elements                        : 42
Размер потока                            : 1,09 Кбайт (0%)
Язык                                     : English
Default                                  : Нет
Forced                                   : Нет

Текст #3
Идентификатор                            : 6
Формат                                   : UTF-8
Идентификатор кодека                     : S_TEXT/UTF8
Идентификатор кодека/Информация          : UTF-8 Plain Text
Продолжительность                        : 22 м. 43 с.
Битрейт                                  : 8 бит/сек
Count of elements                        : 54
Размер потока                            : 1,38 Кбайт (0%)
Заголовок                                : SDH
Язык                                     : English
Default                                  : Нет
Forced                                   : Нет

Меню
00:00:00.000                             : en:Chapter 01
00:10:04.435                             : en:Chapter 02
00:14:04.180                             : en:Chapter 03
00:23:29.160                             : en:Chapter 04



Скриншоты:
[+] Всего файлов в раздаче - 16:
Unaired Sketches/02.The.Bus.Stop.mkv128.92 MB
Unaired Sketches/01.The.Library.mkv198.06 MB
13.Goodnight.Mr.Bean.mkv394.57 MB
14.Hair.by.Mr.Bean.of.London.mkv501.20 MB
11.Back.To.School.Mr.Bean.mkv530.48 MB
10.Do.It.Yourself.Mr.Bean.mkv534.27 MB
04.Mr.Bean.Goes.To.Town.mkv541.25 MB
01.Mr.Bean.mkv560.69 MB
07.Marry.Christmas.Mr.Bean.mkv561.43 MB
06.Mr.Bean.Rides.Again.mkv575.00 MB
12.Tee.Off.Mr.Bean.mkv585.03 MB
05.The.Trouble.With.Mr.Bean.mkv585.90 MB
09.Mind.the.Baby.Mr.Bean.mkv592.08 MB
08.Mr.Bean.In.Room.426.mkv599.68 MB
02.The.Return.of.Mr.Bean.mkv633.07 MB
03.The.Curse.of.Mr.Bean.mkv667.47 MB

Похожие раздачи по запросу - мистер:
2021-01-21 U Мистер Олимпия / Bigger (2018) BDRip 1080p от OlLanDGroup | iTunes 7.08 GB ↑ 103 ↓ 32

Отзывы
Зарегистрируйтесь чтобы добавить комментарий.
Загрузите программу
  uTorrent.exe
Обратная связь
Copyleft ©