↑↓torrent.by
Поиск
Логин: Регистрация
Пароль: Восстановить пароль

Л.О.Р.Д. Легенда о воюющих царствах 2: Хладнокровный пир / L.O.R.D: Legend of Ravaging Dynasties 2 (2020) WEBRip 1080p | L2

Скачать l-o-r-d-legenda-voyuyuschih-carstvah-2-hladnokrovnyy-pir-legend-of-ravaging-dynasties-2020-webrip-1080p-l2.torrent
U Магнитная ссылка Размер: 3.70 GB Раздают: 29 Качают: 17 Добавлен: 2021-01-08 03:07:40
Л.О.Р.Д. Легенда о воюющих царствах 2: Хладнокровный пир / L.O.R.D: Legend of Ravaging Dynasties 2 (2020) WEBRip 1080p | L2

Название: Л.О.Р.Д. Легенда о воюющих царствах 2: Хладнокровный пир
Оригинальное название: L.O.R.D: Legend of Ravaging Dynasties 2
Год выхода: 2020
Жанр: Мультфильм, фэнтези, полнометражный
Режиссер: Го Цзинмин
В ролях: Чени Чэнь, Крис У, Бинбин Фань, Уильям Чань, Эмбер Ко, Джелли Линь, Рой Ван, Кэрри Ван, Джексон И, Тони Ван

О фильме:
Четыре лорда решают освободить бывшего правителя Гильгамеша, поверженного и заточенного Серебряным Священником. В этой опасной миссии они столкнуться с самыми смертоносными убийцами, посланными врагом, и раскроют заговор, угрожающий всей империи.


Страна: Китай
Студия: Heli Chen'guang International Media
Продолжительность: 02:09:08
Перевод: Любительский (двухголосый, закадровый) RealFake

Файл
Кодек: MPEG-4 AVC
Качество: WEBRip 1080p
Видео: 3 704 Kbps, 1920x804, 24.000 fps
Звук: AC3, 2 ch, 320 Kbps

Релиз от: RealFake
[+] MediaInfo

Format                                   : Matroska
Format version                           : Version 4 / Version 2
File size                                : 3.70 GiB
Duration                                 : 2h 9mn
Overall bit rate                         : 4 106 Kbps
Encoded date                             : UTC 2020-12-22 22:14:41
Writing application                      : mkvmerge v27.0.0 ('Metropolis') 64-bit
Writing library                          : libebml v1.3.6 + libmatroska v1.4.9
DURATION                                 : 02:09:10.531000000
NUMBER_OF_FRAMES                         : 222525
NUMBER_OF_BYTES                          : 310021224
_STATISTICS_WRITING_APP                  : mkvmerge v27.0.0 ('Metropolis') 64-bit
_STATISTICS_WRITING_DATE_UTC             : 2020-12-22 22:14:41
_STATISTICS_TAGS                         : BPS DURATION NUMBER_OF_FRAMES NUMBER_OF_BYTES

Video
ID                                       : 1
Format                                   : AVC
Format/Info                              : Advanced Video Codec
Format profile                           : High@L4.0
Format settings, CABAC                   : Yes
Format settings, ReFrames                : 4 frames
Codec ID                                 : V_MPEG4/ISO/AVC
Duration                                 : 2h 9mn
Bit rate                                 : 3 704 Kbps
Width                                    : 1 920 pixels
Height                                   : 804 pixels
Display aspect ratio                     : 2.40:1
Frame rate mode                          : Constant
Frame rate                               : 24.000 fps
Color space                              : YUV
Chroma subsampling                       : 4:2:0
Bit depth                                : 8 bits
Scan type                                : Progressive
Bits/(Pixel*Frame)                       : 0.100
Stream size                              : 3.34 GiB (90%)
Writing library                          : ptw-1.0.108 rcm-vary vbl-3 vwk
Default                                  : Yes
Forced                                   : No
Color primaries                          : BT.709
Transfer characteristics                 : BT.709
Matrix coefficients                      : BT.709

Audio
ID                                       : 2
Format                                   : AC-3
Format/Info                              : Audio Coding 3
Mode extension                           : CM (complete main)
Format settings, Endianness              : Big
Codec ID                                 : A_AC3
Duration                                 : 2h 9mn
Bit rate mode                            : Constant
Bit rate                                 : 320 Kbps
Channel(s)                               : 2 channels
Channel positions                        : Front: L R
Sampling rate                            : 44.1 KHz
Bit depth                                : 16 bits
Compression mode                         : Lossy
Stream size                              : 296 MiB (8%)
Title                                    : RealFake
Language                                 : Russian
Default                                  : Yes
Forced                                   : Yes




Скриншоты:
[+] Всего файлов в раздаче - 1:
Legend.of.Ravaging.Dynasties.2020.1080p.RealFake.mkv3.70 GB

Показать еще раздачи по запросу легенда:
2020-12-14 U Легенда о волках / Wolfwalkers (2020) WEB-DL 2160p | 4K | HDR | Пифагор 18.63 GB ↑ 45 ↓ 17
2020-12-12 U Легенда о волках / Wolfwalkers (2020) WEB-DLRip от MegaPeer | Пифагор 1.46 GB ↑ 102 ↓ 25
2020-12-12 U Легенда о волках / Wolfwalkers (2020) WEB-DL 720p | Пифагор 3.35 GB ↑ 135 ↓ 26
2020-12-11 U Легенда о волках / Wolfwalkers (2020) WEB-DL 1080p | Пифагор 8.61 GB ↑ 176 ↓ 125
2020-10-16 U Атакан. Кровавая легенда (2020) WEB-DLRip 1.37 GB ↑ 145 ↓ 31
2020-08-08 U Легенда о Билли Джин / The Legend of Billie Jean (1985) BDRip-AVC от ExKinoRay | P2 2.12 GB ↑ 58 ↓ 10
2020-06-30 U Легенда о призрачном кинжале / Benjamin Falck and the Ghost Dagger (2019) WEB-DL 1080p | iTunes 3.35 GB ↑ 555 ↓ 125

Отзывы
Зарегистрируйтесь чтобы добавить комментарий.
Загрузите программу
  uTorrent.exe
Обратная связь
Copyleft ©