↑↓torrent.by
Поиск
Логин: Регистрация
Пароль: Восстановить пароль

Крошечный мир / Tiny World [S01] (2020) WEBRip 2160p | 4K | HDR | HDRezka Studio

Скачать kroshechnyy-mir-tiny-world-s01-2020-webrip-2160p-4k-hdr-hdrezka-studio.torrent
U Магнитная ссылка Размер: 33.84 GB Раздают: 25 Качают: 8 Добавлен: 2021-01-08 03:09:02
Крошечный мир / Tiny World [S01] (2020) WEBRip 2160p | 4K | HDR | HDRezka Studio

Название: Крошечный мир
Оригинальное название: Tiny World
Год выхода: 2020
Жанр: документальный, природа, флора, фауна
Режиссер: Эд Уоткинс
В ролях: Пол Радд

О фильме:
Взгляните на мир глазами мельчайших существ и станьте свидетелями необыкновенных вещей, которые они делают, чтобы выжить.

Страна: США
Студия: Plimsoll Productions
Продолжительность: ~ 00:30:00
Перевод: Профессиональный многоголосый закадровый (HDREZKA studio)

Файл
Кодек: HEVC
Качество: WEBRip 2160p
Видео: 3840x2160, 24,4Mbps, 23,976fps, HDR10
Звук:
EAC3, 768Kbps, 6 ch (Русский)
EAC3 + Dolby Atmos, 768Kbps (Английский)
Субтитры:
Русские (Форсированные и полные)
Английские

Реклама любого рода отсутствует. Убедительная просьба оставаться на раздаче как можно дольше.


[+] MediaInfo
Общее
Уникальный идентификатор                 : 200336757469264956382258059272899651222 (0x96B774BD8A39EDD1F4E7EA7C10E5E696)
Полное имя                               : Tiny.World.S01.HDR.2160p.WEBRipTiny.World.S01E01.HDR.2160p.mkv
Формат                                   : Matroska
Версия формата                           : Version 4
Размер файла                             : 5,46 Гбайт
Продолжительность                        : 30 м. 4 с.
Общий поток                              : 26,0 Мбит/сек
Дата кодирования                         : UTC 2021-01-02 00:06:26
Программа кодирования                    : mkvmerge v51.0.0 ('I Wish') 64-bit
Библиотека кодирования                   : libebml v1.4.0 + libmatroska v1.6.2

Видео
Идентификатор                            : 1
Формат                                   : HEVC
Формат/Информация                        : High Efficiency Video Coding
Профиль формата                          : Main 10@L5@High
HDR format                               : SMPTE ST 2086, HDR10 compatible
Идентификатор кодека                     : V_MPEGH/ISO/HEVC
Продолжительность                        : 30 м. 4 с.
Битрейт                                  : 24,4 Мбит/сек
Ширина                                   : 3 840 пикселей
Высота                                   : 2 160 пикселей
Соотношение сторон                       : 16:9
Режим частоты кадров                     : Постоянный
Частота кадров                           : 23,976 (24000/1001) кадра/сек
Цветовое пространство                    : YUV
Субдискретизация насыщенности            : 4:2:0 (Type 2)
Битовая глубина                          : 10 бит
Бит/(Пиксели*Кадры)                      : 0.123
Размер потока                            : 5,13 Гбайт (94%)
Default                                  : Да
Forced                                   : Нет
Цветовой диапазон                        : Limited
Основные цвета                           : BT.2020
Характеристики трансфера                 : PQ
Коэффициенты матрицы                     : BT.2020 non-constant
Mastering display color primaries        : Display P3
Mastering display luminance              : min: 0.0050 cd/m2, max: 1000 cd/m2
Maximum Content Light Level              : 2006 cd/m2
Maximum Frame-Average Light Level        : 337 cd/m2

Аудио #1
Идентификатор                            : 2
Формат                                   : E-AC-3
Формат/Информация                        : Enhanced AC-3
Коммерческое название                    : Dolby Digital Plus
Идентификатор кодека                     : A_EAC3
Продолжительность                        : 30 м. 4 с.
Вид битрейта                             : Постоянный
Битрейт                                  : 768 Кбит/сек
Каналы                                   : 6 каналов
Channel layout                           : L R C LFE Ls Rs
Частота                                  : 48,0 КГц
Частота кадров                           : 31,250 кадров/сек (1536 SPF)
Метод сжатия                             : С потерями
Размер потока                            : 165 Мбайт (3%)
Язык                                     : Russian
Service kind                             : Complete Main
Default                                  : Да
Forced                                   : Нет

Аудио #2
Идентификатор                            : 3
Формат                                   : E-AC-3 JOC
Формат/Информация                        : Enhanced AC-3 with Joint Object Coding
Коммерческое название                    : Dolby Digital Plus with Dolby Atmos
Идентификатор кодека                     : A_EAC3
Продолжительность                        : 30 м. 4 с.
Вид битрейта                             : Постоянный
Битрейт                                  : 768 Кбит/сек
Каналы                                   : 6 каналов
Channel layout                           : L R C LFE Ls Rs
Частота                                  : 48,0 КГц
Частота кадров                           : 31,250 кадров/сек (1536 SPF)
Метод сжатия                             : С потерями
Размер потока                            : 165 Мбайт (3%)
Язык                                     : English
Service kind                             : Complete Main
Default                                  : Нет
Forced                                   : Нет
Complexity index                         : 16
Number of dynamic objects                : 15
Bed channel count                        : 1 канал
Bed channel configuration                : LFE

Текст #1
Идентификатор                            : 4
Формат                                   : UTF-8
Идентификатор кодека                     : S_TEXT/UTF8
Идентификатор кодека/Информация          : UTF-8 Plain Text
Продолжительность                        : 1 м. 1 с.
Битрейт                                  : 7 бит/сек
Count of elements                        : 2
Размер потока                            : 54,0 байт (0%)
Заголовок                                : Forced
Язык                                     : Russian
Default                                  : Да
Forced                                   : Нет

Текст #2
Идентификатор                            : 5
Формат                                   : UTF-8
Идентификатор кодека                     : S_TEXT/UTF8
Идентификатор кодека/Информация          : UTF-8 Plain Text
Продолжительность                        : 29 м. 52 с.
Битрейт                                  : 55 бит/сек
Count of elements                        : 186
Размер потока                            : 12,1 Кбайт (0%)
Заголовок                                : Full
Язык                                     : Russian
Default                                  : Нет
Forced                                   : Нет

Текст #3
Идентификатор                            : 6
Формат                                   : UTF-8
Идентификатор кодека                     : S_TEXT/UTF8
Идентификатор кодека/Информация          : UTF-8 Plain Text
Продолжительность                        : 28 м. 58 с.
Битрейт                                  : 33 бит/сек
Count of elements                        : 182
Размер потока                            : 7,19 Кбайт (0%)
Язык                                     : English
Default                                  : Нет
Forced                                   : Нет



Скриншоты:
[+] Всего файлов в раздаче - 6:
Tiny.World.S01E01.HDR.2160p.mkv5.46 GB
Tiny.World.S01E03.HDR.2160p.mkv5.53 GB
Tiny.World.S01E04.HDR.2160p.mkv5.57 GB
Tiny.World.S01E05.HDR.2160p.mkv5.66 GB
Tiny.World.S01E02.HDR.2160p.mkv5.67 GB
Tiny.World.S01E06.HDR.2160p.mkv5.96 GB

Похожие раздачи по запросу - крошечный:
2020-10-31 U Крошечный мир / Tiny World [S01] (2020) WEB-DL 720p | P1 6.41 GB ↑ 90 ↓ 35

Отзывы
Зарегистрируйтесь чтобы добавить комментарий.
Загрузите программу
  uTorrent.exe
Обратная связь
Copyleft ©