↑↓torrent.by
Поиск
Логин: Регистрация
Пароль: Восстановить пароль

Большой Барьерный риф: Живое сокровище / Great Barrier Reef: A Living Treasure [01-04 из 04] (2020) DVB | P1

Скачать bolshoy-barernyy-rif-zhivoe-sokrovische-great-barrier-reef-a-living-treasure-01-04-iz-2020-dvb-p1.torrent
U Магнитная ссылка Размер: 4.60 GB Раздают: 51 Качают: 15 Добавлен: 2021-01-08 06:12:24
Большой Барьерный риф: Живое сокровище / Great Barrier Reef: A Living Treasure [01-04 из 04] (2020) DVB  | P1

Название: Большой Барьерный риф: Живое сокровище
Оригинальное название: Great Barrier Reef: A Living Treasure
Год выхода: 2020
Жанр: Документальный, природа, флора, фауна
Режиссер: Ричард Фитцпатрик, Ричард Скотт

О фильме:
Рассказанный обладателем множества наград актером Расселом Кроу и снятый обладателем премии «Эмми» кинематографистом Ричардом Фитцпатриком, этот сериал стоимостью миллион долларов, снятый за четыре года, погружается в волны самой богатой и сложной экосистемы в мире

Страна: Австралия
Студия: Rjmedia, TVF International
Продолжительность: 4 x ~00:46:09
Перевод: Профессиональный (одноголосый закадровый) СВ-Дубль

Файл
Кодек: AVC/H.264
Качество: DVB  
Видео: 720x576 (16:9) AVC (H.264) Main@L3, 3079 kbps, 25 fps
Звук: Русский 48 kHz, MPEG Layer 2, 2 ch, ~192.00 kbps avg
Субтитры: Русские, отключаемые

Семпл

Релиз от: kyba
[+] MediaInfo
Complete name               : M:ТоррентыДокументальныеБольшой Барьерный риф_живое сокровище_DVB1. Обитатели рифа.mkv
Format                      : Matroska
Format version              : Version 4 / Version 2
File size                   : 1.08 GiB
Duration                    : 46 min 9 s
Overall bit rate            : 3 338 kb/s
Encoded date                : UTC 2021-01-07 11:44:44
Writing application         : mkvmerge v6.6.0 ('The Edge Of The In Between') built on Dec  1 2013 17:55:00
Writing library             : libebml v1.3.0 + libmatroska v1.4.1

Video
ID                          : 1
Format                      : AVC
Format/Info                 : Advanced Video Codec
Format profile              : Main@L3
Format settings             : CABAC / 4 Ref Frames
Format settings, CABAC      : Yes
Format settings, RefFrames  : 4 frames
Codec ID                    : V_MPEG4/ISO/AVC
Duration                    : 46 min 9 s
Bit rate                    : 3 079 kb/s
Width                       : 720 pixels
Height                      : 576 pixels
Display aspect ratio        : 16:9
Frame rate mode             : Constant
Frame rate                  : 25.000 FPS
Standard                    : Component
Color space                 : YUV
Chroma subsampling          : 4:2:0
Bit depth                   : 8 bits
Scan type                   : Interlaced
Scan type, store method     : Separated fields
Scan order                  : Top Field First
Bits/(Pixel*Frame)          : 0.297
Stream size                 : 1 017 MiB (92%)
Default                     : Yes
Forced                      : No
Color range                 : Limited
Color primaries             : BT.601 PAL
Transfer characteristics    : BT.470 System B, BT.470 System G
Matrix coefficients         : BT.470 System B, BT.470 System G

Audio
ID                          : 2
Format                      : MPEG Audio
Format version              : Version 1
Format profile              : Layer 2
Codec ID                    : A_MPEG/L2
Codec ID/Hint               : MP2
Duration                    : 46 min 9 s
Bit rate mode               : Constant
Bit rate                    : 192 kb/s
Channel(s)                  : 2 channels
Sampling rate               : 48.0 kHz
Compression mode            : Lossy
Stream size                 : 63.4 MiB (6%)
Language                    : Russian
Default                     : Yes
Forced                      : No

Text
ID                          : 3
Format                      : UTF-8
Codec ID                    : S_TEXT/UTF8
Codec ID/Info               : UTF-8 Plain Text
Title                       : СВ-Дубль
Language                    : Russian
Default                     : No
Forced                      : No



[+] Содержание

01. Живой риф (Обитатели рифа) / Living Reef
Протянувшийся почти на две с половиной тысячи километров вдоль северо-восточного побережья Австралии, Большой Барьерный риф – одно из самых прекрасных явлений природы нашей планеты. Это самый крупный живой организм на Земле, который видно даже из космоса, богатая и сложная экосистема. О многочисленных животных, обитающих в водах этого огромного рифа.
02. Коралловое побережье (На побережье) / Coral Coast
Огромный, разветвленный и прекрасный, Большой Барьерный риф протянулся вдоль не менее удивительного побережья Кораллового моря. Это единственное место на планете, где коралловые рифы соседствуют с древними тропическими лесами. Об уникальной, не похожей ни на одну в мире, экосистеме, образованной рифом, мангровыми зарослями, реками и влажными джунглями.
03. Коралловые острова / Coral Islands
Протянувшийся на две тысячи триста километров вдоль побережья Австралии, Большой Барьерный риф насчитывает почти три тысячи отдельных коралловых рифов и около 900 островов в Коралловом море. Это и крупнейший из них остров Хинчинбрук и островки, больше похожие на песчаную косу посреди океана. От острова Лизард на севере до острова Леди-Эллиот на юге. От храма дикой природы на острове Рейн до Магнитного острова – Большой Барьерный риф – это скопление островов и островков, обладающих уникальными чертами и экологией. О местной природе во всем ее разнообразии.
04. Коралловое море / Coral Sea
Покрывающее площадь в почти пять миллионов квадратных километров Коралловое море можно назвать "домом" Большого Барьерного рифа – крупнейшего кораллового рифа нашей планеты. Это море получило свое название благодаря потрясающей колонии разнообразных кораллов, обитающих у побережья и на больших глубинах. В Коралловом море самая богатая морская экосистема. О том, как обитатели Кораллового моря живут и развиваются во всем своем разнообразии.



Скриншоты:
[+] Всего файлов в раздаче - 4:
01. Обитатели рифа.mkv1.08 GB
02. На побережье.mkv1.34 GB
03. Коралловые острова.mkv1.05 GB
04. Коралловое море.mkv1.13 GB

Показать еще раздачи по запросу большой:
2020-12-23 U Улика из прошлого. Тегеран-43: последняя тайна «Большой тройки» (2020) SATRip 514.30 MB ↑ 49 ↓ 11
2020-12-08 U Большой куш / Твари, цепляющиеся за соломинки / Jipuragirado japgo sipeun jimseungdeul (2020) BDRemux 1080p | iTunes 18.47 GB ↑ 81 ↓ 12
2020-12-07 U Большой куш / Твари, цепляющиеся за соломинки / Jipuragirado japgo sipeun jimseungdeul (2020) HDRip-AVC от MediaBit | iTunes 1.45 GB ↑ 122 ↓ 43
2020-12-07 U Большой куш / Твари, цепляющиеся за соломинки / Jipuragirado japgo sipeun jimseungdeul (2020) BDRip 1080p | iTunes 11.32 GB ↑ 191 ↓ 182
2020-12-07 U Большой куш / Твари, цепляющиеся за соломинки / Jipuragirado japgo sipeun jimseungdeul (2020) BDRip 720p | iTunes 5.73 GB ↑ 228 ↓ 160
2020-12-07 U Большой куш / Твари, цепляющиеся за соломинки / Jipuragirado japgo sipeun jimseungdeul (2020) BDRip от MegaPeer | iTunes 1.46 GB ↑ 331 ↓ 93
2020-11-26 U Секретные материалы. Дальневосточный передел: закулисье большой игры (2020) SATRip 513.35 MB ↑ 56 ↓ 11

Отзывы
Зарегистрируйтесь чтобы добавить комментарий.
Загрузите программу
  uTorrent.exe
Обратная связь
Copyleft ©