↑↓torrent.by
Поиск
Логин: Регистрация
Пароль: Восстановить пароль

На острие (2020) WEB-DLRip-AVC от ExKinoRay | iTunes

Скачать na-ostrie-2020-web-dlrip-avc-ot-exkinoray-itunes.torrent
U Магнитная ссылка Размер: 744.65 MB Раздают: 170 Качают: 44 Добавлен: 2021-01-08 19:25:09
На острие (2020) WEB-DLRip-AVC от ExKinoRay | iTunes

Название: На острие
Год выхода: 2020
Жанр:  Драма, спорт
Режиссер: Эдуард Бордуков
В ролях: Светлана Ходченкова, Стася Милославская, Сергей Пускепалис, Алексей Барабаш, Евгений Сытый, Софья Эрнст, Хильда Кармен, Алексей Дьячков, Мария Киселёва, Павел Колобков, Кирилл Дегтярь

О фильме:
Александра Покровская — лучшая саблистка мира. Она знаменита, богата и счастлива, и чтобы закрепить свой успех и войти в историю, ей остается сделать последний шаг — взять олимпийское золото. Однако на ее пути встает девятнадцатилетняя Кира Егорова, девушка из провинции, в одночасье покорившая Москву. Кира побеждает на всех соревнованиях и не сходит с обложек глянцевых журналов. Ее цель — занять место Покровской. Между саблистками начинается отчаянная схватка не только на турнирах, но и в жизни. Обе одержимы, и, кажется, ничто не может остановить их.

Страна: Россия
Студия: Кинокомпания "Телесто"
Продолжительность: 01:53:50
Язык: Русский | iTunes

Файл
Формат: MKV
Качество: WEB-DLRip-AVC
Видео: MPEG-4 AVC, 764x320, 838 Кбит/с
Аудио:  AAC-HE, 2 ch, 76 Кбит/с
Субтитры: Нет


[+] MI
Общее
Уникальный идентификатор : 98486941366948665743779169108490161857 (0x4A17E51B81C2B7D4DEA14ACC505F8EC1)
Полное имя : D:MOVIESNa.Ostrie.2020.WEB-DLRip-AVC.ExKinoRay.mkv
Формат : Matroska
Версия формата : Version 4
Размер файла : 745 Мбайт
Продолжительность : 1 ч. 53 м.
Общий поток : 915 Кбит/сек
Дата кодирования : UTC 2021-01-08 10:38:53
Программа кодирования : mkvmerge v45.0.0 ('Heaven in Pennies') 64-bit
Библиотека кодирования : libebml v1.3.10 + libmatroska v1.5.2

Видео
Идентификатор : 1
Формат : AVC
Формат/Информация : Advanced Video Codec
Профиль формата : High@L4.1
Настройки формата : CABAC / 13 Ref Frames
Параметр CABAC формата : Да
Параметр RefFrames формата : 13 кадров
Идентификатор кодека : V_MPEG4/ISO/AVC
Продолжительность : 1 ч. 53 м.
Битрейт : 838 Кбит/сек
Ширина : 764 пикселя
Высота : 320 пикселей
Соотношение сторон : 2,40:1
Режим частоты кадров : Постоянный
Частота кадров : 24,000 кадра/сек
Цветовое пространство : YUV
Субдискретизация насыщенности : 4:2:0
Битовая глубина : 8 бит
Тип развёртки : Прогрессивная
Бит/(Пиксели*Кадры) : 0.143
Размер потока : 681 Мбайт (91%)
Библиотека кодирования : x264 core 160 r3000 33f9e14
Настройки программы : cabac=1 / ref=13 / deblock=1:-3:-3 / analyse=0x3:0x133 / me=umh / subme=10 / psy=1 / psy_rd=1.05:0.12 / mixed_ref=1 / me_range=32 / chroma_me=1 / trellis=2 / 8x8dct=1 / cqm=0 / deadzone=21,11 / fast_pskip=0 / chroma_qp_offset=-3 / threads=6 / lookahead_threads=1 / sliced_threads=0 / nr=0 / decimate=0 / interlaced=0 / bluray_compat=0 / constrained_intra=0 / bframes=10 / b_pyramid=2 / b_adapt=2 / b_bias=0 / direct=3 / weightb=1 / open_gop=0 / weightp=2 / keyint=240 / keyint_min=24 / scenecut=40 / intra_refresh=0 / rc=2pass / mbtree=0 / bitrate=838 / ratetol=1.0 / qcomp=0.60 / qpmin=0 / qpmax=69 / qpstep=4 / cplxblur=20.0 / qblur=0.5 / ip_ratio=1.40 / pb_ratio=1.30 / aq=1:1.00
Default : Да
Forced : Нет
Цветовой диапазон : Limited
Основные цвета : BT.709
Характеристики трансфера : BT.709
Коэффициенты матрицы : BT.709

Аудио
Идентификатор : 2
Формат : AAC LC SBR
Формат/Информация : Advanced Audio Codec Low Complexity with Spectral Band Replication
Коммерческое название : HE-AAC
Настройки формата : Explicit
Идентификатор кодека : A_AAC-2
Продолжительность : 1 ч. 53 м.
Битрейт : 76,0 Кбит/сек
Каналы : 2 канала
Channel layout : L R
Частота : 48,0 КГц
Частота кадров : 23,438 кадра/сек (2048 SPF)
Метод сжатия : С потерями
Задержка видео : 31 мс.
Размер потока : 61,9 Мбайт (8%)
Default : Да
Forced : Нет

Меню
00:00:00.000 : en:Глава 1
00:08:59.750 : en:Глава 2
00:14:27.750 : en:Глава 3
00:21:54.083 : en:Глава 4
00:31:37.541 : en:Глава 5
00:38:10.499 : en:Глава 6
00:43:14.124 : en:Глава 7
00:53:39.874 : en:Глава 8
01:01:29.749 : en:Глава 9
01:05:23.790 : en:Глава 10
01:14:43.498 : en:Глава 11
01:20:36.873 : en:Глава 12
01:25:15.080 : en:Глава 13
01:34:39.537 : en:Глава 14
01:46:11.369 : en:Глава 15



Скриншоты:
[+] Всего файлов в раздаче - 1:
Na.Ostrie.2020.WEB-DLRip-AVC.ExKinoRay.mkv744.65 MB

Показать еще раздачи по запросу острие:
2021-01-09 U На острие (2020) WEB-DLRip-AVC от Files-х | iTunes 1.46 GB ↑ 245 ↓ 79
2021-01-09 U На острие (2020) WEB-DLRip 720p от SuperMin | iTunes 2.69 GB ↑ 80 ↓ 31
2021-01-08 U На острие (2020) WEB-DLRip от GeneralFilm | iTunes 746.56 MB ↑ 223 ↓ 54
2021-01-08 U На острие (2020) WEB-DLRip от GeneralFilm | iTunes 1.46 GB ↑ 78 ↓ 41
2021-01-08 U На острие (2020) WEB-DLRip от MegaPeer | iTunes 1.46 GB ↑ 94 ↓ 32
2021-01-08 U На острие (2020) WEB-DL 1080p | iTunes 3.92 GB ↑ 513 ↓ 150
2018-07-30 U Григорий Шаргородский - Грани страха 2. Острие ужаса (2018) MP3 371.33 MB ↑ 171 ↓ 24

Отзывы
Зарегистрируйтесь чтобы добавить комментарий.
Загрузите программу
  uTorrent.exe
Обратная связь
Copyleft ©