↑↓torrent.by
Поиск
Логин: Регистрация
Пароль: Восстановить пароль

Том и Джерри / Tom and Jerry [001-162] (1940-2005) WEBRip-HEVC 1080p | P

Скачать tom-i-dzherri-and-jerry-001-162-1940-2005-webrip-hevc-1080p-p.torrent
U Магнитная ссылка Размер: 23.66 GB Раздают: 87 Качают: 215 Добавлен: 2021-01-08 19:25:59
Том и Джерри / Tom and Jerry [001-162] (1940-2005) WEBRip-HEVC 1080p | P

Название: Том и Джерри
Оригинальное название: Tom and Jerry
Год выхода: 1940-2005
Жанр: Мультфильм, комедия, семейный
Режиссер: Джозеф Барбера, Уильям Ханна, Джин Дейч, Чак Джонс

О фильме:
Всемирно известная серия мультфильмов о приключениях кота Тома и мышонка Джерри.
Задорные и смешные приключения этих прекрасных забавных персонажей делают его популярным не только среди детей, но и людей всех возрастов.
И если первый старается поймать мышонка хитростью и коварством, то второй всегда оказывается более мудрым, чем кот.
Мультфильмы пропитаны юмором и сумасшедшими погонями, которые не отпускают от экранов от начала и до конца.
В 2000 году журнал Time назвал мультсериал «Том и Джерри» одним из величайших телевизионных шоу всех времён.

ПРИМЕЧАНИЕ:
Двух серий нет в хорошем качестве, вероятно никогда не будет, я не стал их добавлять
162 - Tom and Jerry: The Mansion Cat (серия сделана специально для рекламы канала Boomerang)
164 - Tom and Jerry: A Fundraising Adventure (серия является рекламой благотворительного фонда)

Страна: США
Продолжительность: ~00:08:00
Перевод: Профессиональный (многоголосый, закадровый)

Файл
Качество: WEBRip-HEVC
Видео: 1480x1080, 23.976 fps, ~2500 kb/s, 10 bit
Звук: AC3, 192 kb/s, 48 kHz, 2.0 | Омикрон, РТР, Пифагор
Звук: AC3, 192 kb/s, 48 kHz, 2.0 | Английский
Субтитры: Английские


[+] MediaInfo
General
Unique ID                   : 171676365614946663076220825291818223349 (0x8127AA52F1E91E50962B857EB84F46F5)
Complete name               : D:Tom and Jerry (1080p HEVC) 001 - Puss Gets The Boot (10.02.1940).mkv
Format                      : Matroska
Format version              : Version 4
File size                   : 191 MiB
Duration                    : 9 min 16 s
Overall bit rate            : 2 873 kb/s
Movie name                  : 01 - Puss Gets The Boot
Encoded date                : UTC 2020-12-30 07:54:33
Writing application         : mkvmerge v8.3.0 ('Over the Horizon') 64bit
Writing library             : libebml v1.3.1 + libmatroska v1.4.2

Video
ID                          : 1
Format                      : HEVC
Format/Info                 : High Efficiency Video Coding
Format profile              : Main 10@L4@Main
Codec ID                    : V_MPEGH/ISO/HEVC
Duration                    : 9 min 13 s
Bit rate                    : 2 497 kb/s
Width                       : 1 480 pixels
Height                      : 1 080 pixels
Display aspect ratio        : 1.370
Frame rate mode             : Constant
Frame rate                  : 23.976 (24000/1001) FPS
Color space                 : YUV
Chroma subsampling          : 4:2:0
Bit depth                   : 10 bits
Bits/(Pixel*Frame)          : 0.065
Stream size                 : 165 MiB (86%)
Writing library             : x265 3.4+6-g73f96ff39:[Windows][GCC 11.0.0][64 bit] 10bit
Encoding settings           : cpuid=1111039 / frame-threads=5 / numa-pools=32 / wpp / no-pmode / no-pme / no-psnr / no-ssim / log-level=2 / input-csp=1 / input-res=1480x1080 / interlace=0 / total-frames=13273 / level-idc=0 / high-tier=1 / uhd-bd=0 / ref=4 / no-allow-non-conformance / no-repeat-headers / annexb / no-aud / no-hrd / info / hash=0 / no-temporal-layers / open-gop / min-keyint=23 / keyint=250 / gop-lookahead=0 / bframes=8 / b-adapt=2 / b-pyramid / bframe-bias=0 / rc-lookahead=80 / lookahead-slices=0 / scenecut=40 / hist-scenecut=0 / radl=0 / no-splice / no-intra-refresh / ctu=64 / min-cu-size=8 / no-rect / no-amp / max-tu-size=32 / tu-inter-depth=1 / tu-intra-depth=1 / limit-tu=0 / rdoq-level=2 / dynamic-rd=0.00 / no-ssim-rd / signhide / no-tskip / nr-intra=0 / nr-inter=0 / no-constrained-intra / no-strong-intra-smoothing / max-merge=3 / limit-refs=3 / limit-modes / me=3 / subme=5 / merange=57 / temporal-mvp / no-frame-dup / no-hme / weightp / no-weightb / no-analyze-src-pics / deblock=-3:-3 / no-sao / no-sao-non-deblock / rd=4 / selective-sao=0 / no-early-skip / rskip / no-fast-intra / no-tskip-fast / no-cu-lossless / no-b-intra / no-splitrd-skip / rdpenalty=0 / psy-rd=2.00 / psy-rdoq=1.70 / no-rd-refine / no-lossless / cbqpoffs=0 / crqpoffs=0 / rc=abr / bitrate=2500 / qcomp=0.60 / qpstep=4 / stats-write=0 / stats-read=2 / cplxblur=20.0 / qblur=0.5 / ipratio=1.40 / pbratio=1.30 / aq-mode=3 / aq-strength=0.80 / cutree / zone-count=0 / no-strict-cbr / qg-size=32 / no-rc-grain / qpmax=69 / qpmin=0 / no-const-vbv / sar=0 / overscan=0 / videoformat=5 / range=0 / colorprim=2 / transfer=2 / colormatrix=2 / chromaloc=0 / display-window=0 / cll=0,0 / min-luma=0 / max-luma=1023 / log2-max-poc-lsb=8 / vui-timing-info / vui-hrd-info / slices=1 / no-opt-qp-pps / no-opt-ref-list-length-pps / no-multi-pass-opt-rps / scenecut-bias=0.05 / hist-threshold=0.01 / no-opt-cu-delta-qp / no-aq-motion / no-hdr10 / no-hdr10-opt / no-dhdr10-opt / no-idr-recovery-sei / analysis-reuse-level=0 / analysis-save-reuse-level=0 / analysis-load-reuse-level=0 / scale-factor=0 / refine-intra=0 / refine-inter=0 / refine-mv=1 / refine-ctu-distortion=0 / no-limit-sao / ctu-info=0 / no-lowpass-dct / refine-analysis-type=0 / copy-pic=1 / max-ausize-factor=1.0 / no-dynamic-refine / no-single-sei / no-hevc-aq / no-svt / no-field / qp-adaptation-range=1.00 / no-scenecut-aware-qpconformance-window-offsets / right=0 / bottom=0 / decoder-max-rate=0
Default                     : Yes
Forced                      : No

Audio #1
ID                          : 2
Format                      : AC-3
Format/Info                 : Audio Coding 3
Commercial name             : Dolby Digital
Codec ID                    : A_AC3
Duration                    : 9 min 16 s
Bit rate mode               : Constant
Bit rate                    : 192 kb/s
Channel(s)                  : 1 channel
Channel layout              : C
Sampling rate               : 48.0 kHz
Frame rate                  : 31.250 FPS (1536 SPF)
Compression mode            : Lossy
Stream size                 : 12.7 MiB (7%)
Title                       : DVO (Омикрон)
Language                    : Russian
Service kind                : Complete Main
Default                     : Yes
Forced                      : Yes

Audio #2
ID                          : 3
Format                      : AC-3
Format/Info                 : Audio Coding 3
Commercial name             : Dolby Digital
Codec ID                    : A_AC3
Duration                    : 9 min 16 s
Bit rate mode               : Constant
Bit rate                    : 192 kb/s
Channel(s)                  : 1 channel
Channel layout              : C
Sampling rate               : 48.0 kHz
Frame rate                  : 31.250 FPS (1536 SPF)
Compression mode            : Lossy
Stream size                 : 12.7 MiB (7%)
Language                    : English
Service kind                : Complete Main
Default                     : No
Forced                      : No

Text #1
ID                          : 4
Format                      : UTF-8
Codec ID                    : S_TEXT/UTF8
Codec ID/Info               : UTF-8 Plain Text
Duration                    : 8 min 52 s
Bit rate                    : 13 b/s
Count of elements           : 20
Stream size                 : 909 Bytes (0%)
Language                    : Russian
Default                     : No
Forced                      : No

Text #2
ID                          : 5
Format                      : PGS
Muxing mode                 : zlib
Codec ID                    : S_HDMV/PGS
Codec ID/Info               : Picture based subtitle format used on BDs/HD-DVDs
Duration                    : 6 min 44 s
Bit rate                    : 3 765 b/s
Count of elements           : 46
Stream size                 : 186 KiB (0%)
Language                    : English
Default                     : No
Forced                      : No




Скриншоты:
[+] Всего файлов в раздаче - 164:
001 - Puss Gets The Boot (10.02.1940).mkv190.60 MB
002 - The Midnight Snack (19.07.1941).mkv187.02 MB
003 - The Night Before Christmas (06.12.1941).mkv180.03 MB
004 - Fraidy Cat (17.01.1942).mkv170.88 MB
005 - Dog Trouble (18.04.1942).mkv164.66 MB
007 - The Bowling Alley-Cat (18.07.1942).mkv165.39 MB
008 - Fine Feathered Friend (10.10.1942).mkv163.25 MB
010 - The Lonesome Mouse (22.05.1943).mkv168.49 MB
011 - The Yankee Doodle Mouse (26.06.1943).mkv155.96 MB
012 - Baby Puss (25.12.1943).mkv166.36 MB
013 - The Zoot Cat (26.02.1944).mkv147.82 MB
014 - The Million Dollar Cat (06.05.1944).mkv149.07 MB
015 - The Bodyguard (22.07.1944).mkv153.93 MB
017 - Mouse Trouble (23.11.1944).mkv154.35 MB
018 - The Mouse Comes To Dinner (05.05.1945).mkv153.88 MB
019 - Mouse In Manhattan (07.07.1945).mkv169.96 MB
020 - Tee For Two (21.07.1945).mkv146.93 MB
021 - Flirty Birdy (22.09.1945).mkv152.37 MB
022 - Quiet Please! (22.12.1945).mkv158.62 MB
023 - Springtime For Thomas (30.03.1946).mkv160.81 MB
024 - The Milky Waif (18.05.1946).mkv154.23 MB
025 - Trap Happy (29.06.1946).mkv148.91 MB
026 - Solid Serenade (31.08.1946).mkv154.21 MB
028 - Part Time Pal (15.03.1947).mkv164.72 MB
029 - The Cat Concerto (26.04.1947).mkv155.89 MB
030 - Dr. Jekyll and Mr. Mouse (14.06.1947).mkv154.36 MB
031 - Salt Water Tabby (12.07.1947).mkv152.38 MB
032 - A Mouse In The House (30.08.1947).mkv164.73 MB
033 - The Invisible Mouse (27.09.1947).mkv152.73 MB
034 - Kitty Foiled (01.06.1948).mkv154.05 MB
035 - The Truce Hurts (17.07.1948).mkv166.32 MB
037 - Professor Tom (30.10.1948).mkv157.49 MB
038 - Mouse Cleaning (11.12.1948).mkv146.50 MB
039 - Polka-Dot Puss (26.02.1949).mkv160.71 MB
040 - The Little Orphan (30.04.1949).mkv161.97 MB
041 - Hatch Up Your Troubles (14.05.1949).mkv159.81 MB
042 - Heavenly Puss (09.07.1949).mkv171.83 MB
043 - The Cat And The Mermouse (03.09.1949).mkv159.03 MB
044 - Love That Pup (01.10.1949).mkv158.11 MB
046 - Tennis Chumps (10.12.1949).mkv143.78 MB
047 - Little Quacker (07.01.1950).mkv148.70 MB
048 - Saturday Evening Puss (14.01.1950).mkv133.61 MB
049 - Texas Tom (11.03.1950).mkv140.09 MB
050 - Jerry And The Lion (08.04.1950).mkv147.45 MB
051 - Safety Second (01.07.1950).mkv142.13 MB
052 - Tom and Jerry in the Hollywood Bowl (16.09.1950).mkv162.87 MB
053 - The Framed Cat (21.10.1950).mkv150.25 MB
054 - Cue Ball Cat (25.11.1950).mkv146.96 MB
055 - Casanova Cat (06.01.1951).mkv145.26 MB
056 - Jerry And The Goldfish (03.03.1951).mkv154.18 MB
058 - Sleepy-Time Tom (26.05.1951).mkv146.71 MB
059 - His Mouse Friday (07.07.1951).mkv139.25 MB
060 - Slicked-Up Pup (08.09.1951).mkv132.85 MB
061 - Nit-Witty Kitty (06.10.1951).mkv136.68 MB
062 - Cat Napping (08.12.1951).mkv145.96 MB
063 - The Flying Cat (12.01.1952).mkv141.45 MB
064 - The Duck Doctor (16.02.1952).mkv147.94 MB
065 - The Two Mouseketeers (15.03.1952).mkv153.71 MB
066 - Smitten Kitten (12.04.1952).mkv158.80 MB
067 - Triplet Trouble (19.04.1952).mkv141.24 MB
068 - Little Runaway (14.06.1952).mkv146.35 MB
069 - Fit To Be Tied (26.07.1952).mkv144.26 MB
070 - Push-Button Kitty (06.09.1952).mkv136.76 MB
071 - Cruise Cat (18.10.1952).mkv147.95 MB
072 - The Dog House (29.11.1952).mkv125.36 MB
073 - The Missing Mouse (10.01.1953).mkv135.35 MB
074 - Jerry And Jumbo (21.02.1953).mkv147.66 MB
075 - Johann Mouse (21.03.1953).mkv174.02 MB
077 - Just Ducky (05.09.1953).mkv143.03 MB
078 - Two Little Indians (17.10.1953).mkv140.80 MB
079 - Life With Tom (21.11.1953).mkv158.37 MB
080 - Puppy Tale (23.01.1954).mkv145.04 MB
081 - Posse Cat (30.01.1954).mkv133.35 MB
082 - Hic-cup Pup (17.04.1954).mkv139.62 MB
083 - Little School Mouse (29.05.1954).mkv157.30 MB
084 - Baby Butch (14.08.1954).mkv154.54 MB
085 - Mice Follies (04.09.1954).mkv153.93 MB
086 - Neapolitan Mouse (02.10.1954).mkv159.60 MB
087 - Downhearted Duckling (13.11.1954).mkv133.33 MB
088 - Pet Peeve (20.11.1954).mkv132.57 MB
089 - Touché, Pussy Cat! (18.12.1954).mkv140.19 MB
090 - Southbound Duckling (12.03.1955).mkv130.77 MB
091 - Pup On A Picnic (30.04.1955).mkv144.37 MB
092 - Mouse For Sale (21.05.1955).mkv151.21 MB
093 - Designs on Jerry (02.09.1955).mkv136.20 MB
094 - Tom And Chérie (09.09.1955).mkv137.28 MB
095 - Smarty Cat (14.10.1955).mkv154.97 MB
096 - Pecos Pest (11.11.1955).mkv146.75 MB
098 - The Flying Sorceress (27.01.1956).mkv137.52 MB
099 - The Egg And Jerry (23.03.1956).mkv168.79 MB
100 - Busy Buddies (04.05.1956).mkv130.79 MB
101 - Muscle Beach Tom (07.09.1956).mkv139.37 MB
102 - Down Beat Bear (21.10.1956).mkv134.23 MB
103 - Blue Cat Blues (06.11.1956).mkv141.49 MB
104 - Barbecue Brawl (14.12.1956).mkv148.13 MB
105 - Tops With Pops (22.02.1957).mkv166.78 MB
105.1 - Spike and Tyke - Give and Tyke (29.03.1957).mkv134.90 MB
106 - Timid Tabby (19.04.1957).mkv152.76 MB
107.1 - Spike and Tyke - Scat Cats (26.07.1957).mkv132.20 MB
108 - Mucho Mouse (06.09.1957).mkv147.93 MB
110 - Happy Go Ducky (03.01.1958).mkv138.81 MB
111 - Royal Cat Nap (07.03.1958).mkv139.24 MB
112 - The Vanishing Duck (02.05.1958).mkv146.90 MB
113 - Robin Hoodwinked (06.06.1958).mkv133.20 MB
114 - Tot Watchers (01.08.1958).mkv138.08 MB
116 - Down and Outing (26.10.1961).mkv144.07 MB
118 - High Steaks (23.03.1962).mkv136.50 MB
119 - Mouse into Space (13.04.1962).mkv141.49 MB
120 - Landing Stripling (18.05.1962).mkv135.11 MB
121 - Calypso Cat (21.06.1962).mkv159.49 MB
122 - Dicky Moe (20.07.1962).mkv147.68 MB
123 - The Tom and Jerry Cartoon Kit (10.08.1962).mkv137.74 MB
124 - Tall in the Trap (14.09.1962).mkv158.65 MB
125 - Sorry Safari (12.10.1962).mkv152.49 MB
126 - Buddies Thicker Than Water (01.11.1962).mkv186.92 MB
127 - Carmen Get It! (21.12.1962).mkv160.67 MB
128 - Pent-House Mouse (27.07.1963).mkv158.33 MB
129 - The Cat Above and the Mouse Below (25.02.1964).mkv145.64 MB
130 - Is There a Doctor in the Mouse (24.03.1964).mkv159.57 MB
131 - Much Ado About Mousing (24.05.1964).mkv143.50 MB
132 - Snowbody Loves Me (11.09.1964).mkv163.92 MB
133 - The Unshrinkable Jerry Mouse (06.12.1964).mkv141.85 MB
134 - Ah, Sweet Mouse-Story of Life (21.01.1965).mkv120.60 MB
135 - Tom-ic Energy (07.03.1965).mkv137.85 MB
136 - Bad Day at Cat Rock (26.04.1965).mkv126.71 MB
137 - The Brothers Carry-Mouse-Off (15.05.1965).mkv138.73 MB
138 - Haunted Mouse (30.05.1965).mkv144.93 MB
140 - Of Feline Bondage (02.08.1965).mkv132.57 MB
141 - The Year of the Mouse (30.07.1965).mkv129.44 MB
143 - Duel Personality (20.01.1966).mkv126.79 MB
144 - Jerry, Jerry, Quite Contrary (17.02.1966).mkv139.29 MB
145 - Jerry-Go-Round (03.03.1966).mkv128.31 MB
146 - Love Me, Love My Mouse (28.04.1966).mkv131.02 MB
148 - Filet Meow (30.06.1966).mkv133.59 MB
149 - Matinee Mouse (14.07.1966).mkv123.57 MB
150 - The A-TOM-iNABLE Snowman (04.08.1966).mkv135.86 MB
151 - Catty-Cornered (08.09.1966).mkv134.77 MB
152 - Cat and Dupli-Cat (01.01.1967).mkv139.99 MB
153 - O-Solar-Meow (24.01.1967).mkv140.71 MB
154 - Guided Mouse-ille (03.02.1967).mkv139.87 MB
156 - Cannery Rodent (30.04.1967).mkv139.14 MB
157 - The Mouse from H.U.N.G.E.R. (07.05.1967).mkv141.37 MB
158 - Surf-Bored Cat (04.06.1967).mkv135.14 MB
159 - Shutter-Bugged Cat (1) (16.06.1967).mkv143.86 MB
160 - Advance and Be Mechanized (29.08.1967).mkv122.32 MB
161 - Purr-Chance to Dream (08.09.1967).mkv124.86 MB
163 - The Karate Guard (27.09.2005).mkv163.68 MB

Похожие раздачи по запросу - джерри:
2020-06-11 U Том и Джерри / Tom and Jerry [001-163 из 163] (1940-2005) DVDRip | P 15.32 GB ↑ 587 ↓ 119
2018-07-03 U Том и Джерри: Вилли Вонка и шоколадная фабрика / Tom and Jerry: Willy Wonka and the Chocolate Factory (2017) WEB-DLRip-AVC | L2 1.55 GB ↑ 320 ↓ 32

Отзывы
Зарегистрируйтесь чтобы добавить комментарий.
Загрузите программу
  uTorrent.exe
Обратная связь
Copyleft ©