↑↓torrent.by
Поиск
Логин: Регистрация
Пароль: Восстановить пароль

Неадекватные люди 2 (2020) WEB-DLRip 1080p | IVI

Скачать neadekvatnye-lyudi-2-2020-web-dlrip-1080p-ivi.torrent
U Магнитная ссылка Размер: 7.94 GB Раздают: 96 Качают: 51 Добавлен: 2021-01-09 17:51:12
Неадекватные люди 2 (2020) WEB-DLRip 1080p | IVI

Название: Неадекватные люди 2
Год выхода: 2020
Жанр: Драма, комедия
Режиссер: Роман Каримов
В ролях: Ингрид Олеринская, Илья Любимов, Евгений Цыганов, Мария Горячева, Никита Санаев, Роман Хан, Артём Цуканов, Андрей Бебуришвили, Алексей Гоман, Александра Булычёва

О фильме:
Кристина живет с Виталием тихой семейной жизнью, но ее саркастический взгляд на мир не совпадает с идеалами Виталия. Пока она занимается домашними делами, он все больше времени уделяет работе, и Кристина начинает подозревать, что это как-то связано с появлением в офисе его молодой помощницы Сони.

 
Страна: Россия
Студия: Трио Фильм
Продолжительность: 01:58:44
Перевод: Не требуется (русский)

Файл
Качество: WEB-DLRip 1080p
Исходник: Неадекватные люди 2 (2020) WEB-DL 2160p (tnx EniaHD)

Видео: AVC/H.264, 1920x1080, ~9140 Кbps, 25 fps
Звук: AC3, 6 ch, 448 Kbps - Русский


[+] Дополнительная иинформация
на онлайн площадке IVI вышла купированная версия фильма, примерно на 12 мин короче. просмотр телефона у ГГ с его схемами и затяжные сцены (молчание, простои и т.д) были сокращены .



[+] Mediainfo
Общее
Уникальный идентификатор                 : 214162109904018624559974413837321459906 (0xA11E1F3E2076F5F78EF7750BE92158C2)
Полное имя                               : Неадекватные люди_2.2020. WEBRip.1080p.W.mkv
Формат                                   : Matroska
Версия формата                           : Version 4
Размер файла                             : 7,94 Гбайт
Продолжительность                        : 1 ч. 58 м.
Общий поток                              : 9 579 Кбит/сек
Название фильма                          : Неадекватные люди_2.2020. WEBRip.1080p.W
Дата кодирования                         : UTC 2021-01-07 20:27:41
Программа кодирования                    : mkvmerge v23.0.0 ('The Bride Said No') 64-bit
Библиотека кодирования                   : libebml v1.3.6 + libmatroska v1.4.9

Видео
Идентификатор                            : 1
Формат                                   : AVC
Формат/Информация                        : Advanced Video Codec
Профиль формата                          : High@L4.1
Настройки формата                        : CABAC / 4 Ref Frames
Параметр CABAC формата                   : Да
Параметр RefFrames формата               : 4 кадра
Идентификатор кодека                     : V_MPEG4/ISO/AVC
Продолжительность                        : 1 ч. 58 м.
Битрейт                                  : 9 140 Кбит/сек
Ширина                                   : 1 920 пикселей
Высота                                   : 1 080 пикселей
Соотношение сторон                       : 16:9
Режим частоты кадров                     : Постоянный
Частота кадров                           : 25,000 кадров/сек
Цветовое пространство                    : YUV
Субдискретизация насыщенности            : 4:2:0
Битовая глубина                          : 8 бит
Тип развёртки                            : Прогрессивная
Бит/(Пиксели*Кадры)                      : 0.176
Размер потока                            : 7,57 Гбайт (95%)
Заголовок                                : rip by -=walledol=-
Библиотека кодирования                   : x264 core 159 r2991 1771b55
Настройки программы                      : cabac=1 / ref=4 / deblock=1:-3:-3 / analyse=0x3:0x133 / me=umh / subme=11 / psy=1 / psy_rd=1.00:0.00 / mixed_ref=1 / me_range=32 / chroma_me=1 / trellis=2 / 8x8dct=1 / cqm=0 / deadzone=21,11 / fast_pskip=0 / chroma_qp_offset=-2 / threads=12 / lookahead_threads=3 / sliced_threads=0 / nr=0 / decimate=0 / interlaced=0 / bluray_compat=0 / constrained_intra=0 / bframes=10 / b_pyramid=2 / b_adapt=2 / b_bias=0 / direct=3 / weightb=1 / open_gop=0 / weightp=2 / keyint=250 / keyint_min=25 / scenecut=40 / intra_refresh=0 / rc_lookahead=60 / rc=2pass / mbtree=0 / bitrate=9140 / ratetol=1.0 / qcomp=0.60 / qpmin=0 / qpmax=69 / qpstep=4 / cplxblur=20.0 / qblur=0.5 / vbv_maxrate=30000 / vbv_bufsize=33000 / nal_hrd=none / filler=0 / ip_ratio=1.40 / pb_ratio=1.30 / aq=3:0.80
Язык                                     : Russian
Default                                  : Да
Forced                                   : Нет

Аудио
Идентификатор                            : 2
Формат                                   : AC-3
Формат/Информация                        : Audio Coding 3
Коммерческое название                    : Dolby Digital
Идентификатор кодека                     : A_AC3
Продолжительность                        : 1 ч. 58 м.
Вид битрейта                             : Постоянный
Битрейт                                  : 448 Кбит/сек
Каналы                                   : 6 каналов
Channel layout                           : L R C LFE Ls Rs
Частота                                  : 48,0 КГц
Частота кадров                           : 31,250 кадров/сек (1536 SPF)
Метод сжатия                             : С потерями
Размер потока                            : 380 Мбайт (5%)
Язык                                     : Russian
Service kind                             : Complete Main
Default                                  : Да
Forced                                   : Нет  



Скриншоты:
[+] Всего файлов в раздаче - 1:
Неадекватные люди_2.2020. WEBRip.1080p.W.mkv7.94 GB

Похожие раздачи по запросу - неадекватные:
2013-10-30 U Неадекватные люди (2010) HDRip 8К1.45 GB ↑ 1355 ↓ 25

Отзывы
Зарегистрируйтесь чтобы добавить комментарий.
Загрузите программу
  uTorrent.exe
Обратная связь
Copyleft ©