↑↓torrent.by
Поиск
Логин: Регистрация
Пароль: Восстановить пароль

Оцепеневшие от страха / Aterrados (2018) BDRip 720p от MegaPeer | D, P | iTunes

Скачать ocepenevshie-ot-straha-aterrados-2018-bdrip-720p-megapeer-d-p-itunes.torrent
U Магнитная ссылка Размер: 3.51 GB Раздают: 61 Качают: 9 Добавлен: 2021-01-10 04:31:42
Оцепеневшие от страха / Aterrados (2018) BDRip 720p от MegaPeer | D, P | iTunes

«Кто остановит вторжение из астрала?»

Название: Оцепеневшие от страха
Оригинальное название: Aterrados
Год выхода: 2018
Жанр: Ужасы
Режиссер: Демиан Рунья
В ролях: Максимилиано Гионе, Норберто Гонсало, Эльвира Онетто, Агустин Риттано, Демиан Саломон, Джордж Л. Льюис, Джульета Валлина, Арьель Чаваррия, Уго Албрич, Наталия Сеньоралес

О фильме:
Леденящие душу жуткие события сотрясают пригородное местечко, где соседствуют три уютных домика. Неведомая и невидимая сила зверски убивает женщину на глазах мужа. Ночью у кровати его соседа появляется ужасный монстр. А мальчик из дома напротив, погибший под колесами автомобиля, возвращается с кладбища и садится за кухонный стол. Искать причину необъяснимых кошмаров берутся три специалиста по паранормальным явлениям и детектив из отдела по расследованию убийств.

Страна: Аргентина
Студия: Instituto Nacional de Cine y Artes Audiovisuales (INCAA), Machaco Films
Продолжительность: 01:28:00
Перевод:
• Профессиональный (полное дублирование) | iTunes
• Профессиональный (многоголосый, закадровый) | HDRezka Studio

Файл
Качество: BDRip 720p
Исходник: Terrified.2017.1080p.USA.Blu-ray.AVC.DTS-HD.MA.2.0-AdBlue
Формат: MKV
Кодек: MPEG-4 AVC
Видео: 1280x532 (2.40:1), 23.976 fps, MPEG-4 AVC ~ 4500 Kbps avg, 0.276 bit/pixel
Аудио: AC3, 48 kHz, 6 ch, ~384.00 kbps avg | русский | iTunes
Аудио: AC3, 48 kHz, 2 ch, ~192.00 kbps avg | русский | HDRezka Studio
Аудио: AC3, 48 kHz, 2 ch, ~640.00 kbps avg | английский |
Субтитры: Русские (Full), украинские (Full), Английские (SDH)

Релиз:


[+] Инфо-файл
x264 [info]: frame I:787   Avg QP:13.14  size: 96664
x264 [info]: frame P:22745 Avg QP:15.79  size: 46814
x264 [info]: frame B:103066 Avg QP:17.91  size: 17737
x264 [info]: consecutive B-frames:  1.3%  1.1%  4.4%  7.6% 19.1% 31.0% 14.4%  4.5% 13.5%  1.5%  1.1%  0.6%
***************************************

Общее
Уникальный идентификатор                 : 30952723170939637354879474251973325417 (0x1749471383D2247241E880A6F160F269)
Полное имя                               : Aterrados.2018.720p.BluRay.DD5.1.x264.MegaPeer.mkv
Формат                                   : Matroska
Версия формата                           : Version 4
Размер файла                             : 3,51 Гбайт
Продолжительность                        : 1 ч. 28 м.
Общий поток                              : 5 705 Кбит/сек
Название фильма                          : Оцепеневшие от страха / Aterrados (2018) MegaPeer
Дата кодирования                         : UTC 2021-01-09 13:40:21
Программа кодирования                    : mkvmerge v47.0.0 ('Black Flag') 64-bit
Библиотека кодирования                   : libebml v1.3.10 + libmatroska v1.5.2
Обложка                                  : Yes
Attachments                              : cover.jpg / cover.jpg

Видео
Идентификатор                            : 1
Формат                                   : AVC
Формат/Информация                        : Advanced Video Codec
Профиль формата                          : High@L4.1
Настройки формата                        : CABAC / 12 Ref Frames
Параметр CABAC формата                   : Да
Параметр RefFrames формата               : 12 кадров
Идентификатор кодека                     : V_MPEG4/ISO/AVC
Продолжительность                        : 1 ч. 28 м.
Битрейт                                  : 4 500 Кбит/сек
Ширина                                   : 1 280 пикселей
Высота                                   : 532 пикселя
Соотношение сторон                       : 2,40:1
Режим частоты кадров                     : Постоянный
Частота кадров                           : 23,976 кадра/сек
Цветовое пространство                    : YUV
Субдискретизация насыщенности            : 4:2:0
Битовая глубина                          : 8 бит
Тип развёртки                            : Прогрессивная
Бит/(Пиксели*Кадры)                      : 0.276
Размер потока                            : 2,77 Гбайт (79%)
Заголовок                                : stillet@MegaPeer
Библиотека кодирования                   : x264 core 161 r3018 db0d417
Настройки программы                      : cabac=1 / ref=12 / deblock=1:-3:-3 / analyse=0x3:0x113 / me=umh / subme=11 / psy=1 / psy_rd=1.00:0.00 / mixed_ref=1 / me_range=48 / chroma_me=1 / trellis=2 / 8x8dct=1 / cqm=0 / deadzone=21,11 / fast_pskip=0 / chroma_qp_offset=-2 / threads=17 / lookahead_threads=4 / sliced_threads=0 / nr=0 / decimate=0 / interlaced=0 / bluray_compat=0 / constrained_intra=0 / bframes=11 / b_pyramid=2 / b_adapt=2 / b_bias=0 / direct=3 / weightb=1 / open_gop=0 / weightp=2 / keyint=240 / keyint_min=24 / scenecut=40 / intra_refresh=0 / rc_lookahead=40 / rc=2pass / mbtree=0 / bitrate=4500 / ratetol=1.0 / qcomp=0.60 / qpmin=0 / qpmax=69 / qpstep=4 / cplxblur=20.0 / qblur=0.5 / vbv_maxrate=50000 / vbv_bufsize=62500 / nal_hrd=none / filler=0 / ip_ratio=1.40 / pb_ratio=1.30 / aq=1:1.10
Язык                                     : English
Default                                  : Да
Forced                                   : Нет

Аудио #1
Идентификатор                            : 2
Формат                                   : AC-3
Формат/Информация                        : Audio Coding 3
Коммерческое название                    : Dolby Digital
Идентификатор кодека                     : A_AC3
Продолжительность                        : 1 ч. 28 м.
Вид битрейта                             : Постоянный
Битрейт                                  : 384 Кбит/сек
Каналы                                   : 6 каналов
Channel layout                           : L R C LFE Ls Rs
Частота                                  : 48,0 КГц
Частота кадров                           : 31,250 кадров/сек (1536 SPF)
Метод сжатия                             : С потерями
Размер потока                            : 242 Мбайт (7%)
Заголовок                                : DUB | iTunes
Язык                                     : Russian
Service kind                             : Complete Main
Default                                  : Да
Forced                                   : Да

Аудио #2
Идентификатор                            : 3
Формат                                   : AC-3
Формат/Информация                        : Audio Coding 3
Коммерческое название                    : Dolby Digital
Идентификатор кодека                     : A_AC3
Продолжительность                        : 1 ч. 28 м.
Вид битрейта                             : Постоянный
Битрейт                                  : 192 Кбит/сек
Каналы                                   : 2 канала
Channel layout                           : L R
Частота                                  : 48,0 КГц
Частота кадров                           : 31,250 кадров/сек (1536 SPF)
Метод сжатия                             : С потерями
Размер потока                            : 121 Мбайт (3%)
Заголовок                                : MVO | HDRezka Studio
Язык                                     : Russian
Service kind                             : Complete Main
Default                                  : Нет
Forced                                   : Нет

Аудио #3
Идентификатор                            : 4
Формат                                   : AC-3
Формат/Информация                        : Audio Coding 3
Коммерческое название                    : Dolby Digital
Идентификатор кодека                     : A_AC3
Продолжительность                        : 1 ч. 28 м.
Вид битрейта                             : Постоянный
Битрейт                                  : 640 Кбит/сек
Каналы                                   : 2 канала
Channel layout                           : L R
Частота                                  : 48,0 КГц
Частота кадров                           : 31,250 кадров/сек (1536 SPF)
Метод сжатия                             : С потерями
Размер потока                            : 403 Мбайт (11%)
Язык                                     : English
Service kind                             : Complete Main
Default                                  : Нет
Forced                                   : Нет

Текст #1
Идентификатор                            : 5
Формат                                   : UTF-8
Идентификатор кодека                     : S_TEXT/UTF8
Идентификатор кодека/Информация          : UTF-8 Plain Text
Продолжительность                        : 1 ч. 22 м.
Битрейт                                  : 63 бит/сек
Count of elements                        : 739
Размер потока                            : 38,6 Кбайт (0%)
Заголовок                                : Full
Язык                                     : Russian
Default                                  : Да
Forced                                   : Нет

Текст #2
Идентификатор                            : 6
Формат                                   : UTF-8
Идентификатор кодека                     : S_TEXT/UTF8
Идентификатор кодека/Информация          : UTF-8 Plain Text
Продолжительность                        : 1 ч. 22 м.
Битрейт                                  : 61 бит/сек
Count of elements                        : 740
Размер потока                            : 37,3 Кбайт (0%)
Заголовок                                : Full
Язык                                     : Ukrainian
Default                                  : Нет
Forced                                   : Нет

Текст #3
Идентификатор                            : 7
Формат                                   : UTF-8
Идентификатор кодека                     : S_TEXT/UTF8
Идентификатор кодека/Информация          : UTF-8 Plain Text
Продолжительность                        : 1 ч. 23 м.
Битрейт                                  : 44 бит/сек
Count of elements                        : 960
Размер потока                            : 27,3 Кбайт (0%)
Заголовок                                : SDH
Язык                                     : English
Default                                  : Нет
Forced                                   : Нет

Меню
00:00:00.000                             : :eng: 01
00:10:12.028                             : :eng: 02
00:20:37.277                             : :eng: 03
00:32:44.211                             : :eng: 04
00:41:03.418                             : :eng: 05
00:50:34.155                             : :eng: 06
01:01:24.222                             : :eng: 07
01:08:11.878                             : :eng: 08
01:21:13.368                             : :eng: 09
01:27:59.774                             : :eng: 10




Скриншоты:
[+] Всего файлов в раздаче - 1:
Aterrados.2018.720p.BluRay.DD5.1.x264.MegaPeer.mkv3.51 GB

Похожие раздачи по запросу - оцепеневшие:
2021-01-09 U Оцепеневшие от страха / Aterrados (2018) BDRip 1080p от MegaPeer | D, P | iTunes 8.43 GB ↑ 81 ↓ 88

Отзывы
Зарегистрируйтесь чтобы добавить комментарий.
Загрузите программу
  uTorrent.exe
Обратная связь
Copyleft ©