↑↓torrent.by
Поиск
Логин: Регистрация
Пароль: Восстановить пароль

Три секунды / The Informer (2019) BDRip 1080p от Переулка Переводмана | GER Transfer | D, A

Скачать tri-sekundy-the-informer-2019-bdrip-1080p-ot-pereulka-perevodmana-ger-transfer-d-a.torrent
U Магнитная ссылка Размер: 11.52 GB Раздают: 49 Качают: 16 Добавлен: 2021-01-10 04:32:00
Три секунды / The Informer (2019) BDRip 1080p от Переулка Переводмана | GER Transfer | D, A

Название: Три секунды
Оригинальное название: The Informer
Год выхода: 2019

Страна: Великобритания
Студия: thefyzz, Thunder Road Pictures, Imagination Park Entertainment
Продолжительность: 01:53:35
Жанр: триллер, криминал, боевик

Режиссер: Андреа Ди Стефано
В ролях: Юэль Киннаман, Розамунд Пайк, Клайв Оуэн, Коммон, Ана де Армас, Джоанна Качиньска, Эдвин Де Ла Рента, Сэм Спруэлл, Айлам Ориан, Карма Мейер, ...

Перевод:
• профессиональный (дублированный) iTunes
• авторский (одноголосый, закадровый) Яроцкий Михаил
• субтитры от Натальи Раевской

О фильме: Бывший заключенный специально попадает под арест, чтобы стать одним из членов преступной группировки в наиболее охраняемой тюрьме в мире…

Кодек: x264
Качество: BDRip 1080p
Видео: 1920x804, 12000 kbps, 24 fps
Аудио #1: AC-3, 6 ch, 384 kbps (Rus) - Dub iTunes
Аудио #2: AC-3, 6 ch, 640 kbps (Rus) - AVO Яроцкий Михаил (kyberpunk)
Аудио #3: DTS, 6 ch, 1509 kbps (Eng)
Субтитры: русские, английские

*** Видеоряд без английского хардсаба.


[+] Дополнительная информация
За исходник спасибо potroks
Перевод и озвучка Михаила Яроцкого доступны благодаря: bulovs, Shrooms, nortonn, Arengerok, sa1992, kidman644, podorov92, Valter5559, Литти, Mednik, sstonecold, kostasmen, russsius, marveltm, nikolas, MaXim, evmar08, Юрий Деточкин, napaHouk, beatbybeattttt, garik123, Stahlreich, Jeff-xxx, van156
Сведение с голосом - Переводман.



[+] MediaInfo

x264 [info]: frame I:907   Avg QP:15.77  size:184686
x264 [info]: frame P:32416 Avg QP:18.20  size: 98989
x264 [info]: frame B:130252 Avg QP:19.71  size: 52492
x264 [info]: consecutive B-frames:  1.2%  1.7%  9.6%  7.4% 13.1% 56.7%  3.4%  1.4%  1.4%  1.3%  0.7%  0.8%  0.3%  0.4%  0.6%

Общее
Уникальный идентификатор : 234878058603241014820016253226617710645 (0xB0B3DE5ED226D59E839AF9A91910A835)
Полное имя : Три секунды The Informer 2019 BDRip 1080p.mkv
Формат : Matroska
Версия формата : Version 2
Размер файла : 11,5 Гбайт
Продолжительность : 1 ч. 53 м.
Общий поток : 14,5 Мбит/сек
Дата кодирования : UTC 2021-01-09 08:24:58
Программа кодирования : mkvmerge v4.0.0 ('The Stars were mine') сборка от Jun 6 2010 16:18:42
Библиотека кодирования : libebml v1.0.0 + libmatroska v1.0.0

Видео
Идентификатор : 1
Формат : AVC
Формат/Информация : Advanced Video Codec
Профиль формата : High@L4.1
Параметр CABAC формата : Да
Параметр ReFrames формата : 5 кадров
Идентификатор кодека : V_MPEG4/ISO/AVC
Продолжительность : 1 ч. 53 м.
Битрейт : 12,0 Мбит/сек
Ширина : 1920 пикселей
Высота : 804 пикселя
Соотношение сторон : 2,40:1
Режим частоты кадров : Постоянный
Частота кадров : 24,000 кадра/сек
Цветовое пространство : YUV
Субдискретизация насыщенности : 4:2:0
Битовая глубина : 8 бит
Тип развёртки : Прогрессивная
Бит/(Пиксели*Кадры) : 0.324
Размер потока : 9,29 Гбайт (81%)
Библиотека кодирования : x264 core 146 r2538 121396c
Настройки программы : cabac=1 / ref=5 / deblock=1:-2:-2 / analyse=0x3:0x133 / me=umh / subme=11 / psy=1 / psy_rd=1.00:0.00 / mixed_ref=1 / me_range=32 / chroma_me=1 / trellis=2 / 8x8dct=1 / cqm=0 / deadzone=21,11 / fast_pskip=0 / chroma_qp_offset=-2 / threads=12 / lookahead_threads=2 / sliced_threads=0 / nr=0 / decimate=0 / interlaced=0 / bluray_compat=0 / constrained_intra=0 / bframes=14 / b_pyramid=2 / b_adapt=2 / b_bias=0 / direct=3 / weightb=1 / open_gop=0 / weightp=2 / keyint=240 / keyint_min=24 / scenecut=40 / intra_refresh=0 / rc=2pass / mbtree=0 / bitrate=12000 / ratetol=1.0 / qcomp=0.60 / qpmin=0 / qpmax=69 / qpstep=4 / cplxblur=20.0 / qblur=0.5 / ip_ratio=1.40 / pb_ratio=1.30 / aq=3:0.80
Язык : English
Default : Нет
Forced : Нет

Аудио #1
Идентификатор : 2
Формат : AC-3
Формат/Информация : Audio Coding 3
Расширение режима : CM (complete main)
Параметр Endianness формата : Big
Идентификатор кодека : A_AC3
Продолжительность : 1 ч. 53 м.
Вид битрейта : Постоянный
Битрейт : 384 Кбит/сек
Каналы : 6 каналов
Расположение каналов : Front: L C R, Side: L R, LFE
Частота : 48,0 КГц
Частота кадров : 31,250 кадров/сек (1536 spf)
Метод сжатия : С потерями
Размер потока : 312 Мбайт (3%)
Заголовок : Dub iTunes
Язык : Russian
Default : Нет
Forced : Нет

Аудио #2
Идентификатор : 3
Формат : AC-3
Формат/Информация : Audio Coding 3
Расширение режима : CM (complete main)
Параметр Endianness формата : Big
Идентификатор кодека : A_AC3
Продолжительность : 1 ч. 53 м.
Вид битрейта : Постоянный
Битрейт : 640 Кбит/сек
Каналы : 6 каналов
Расположение каналов : Front: L C R, Side: L R, LFE
Частота : 48,0 КГц
Частота кадров : 31,250 кадров/сек (1536 spf)
Метод сжатия : С потерями
Размер потока : 520 Мбайт (4%)
Заголовок : AVO Яроцкий Михаил (kyberpunk)
Язык : Russian
Default : Нет
Forced : Нет

Аудио #3
Идентификатор : 4
Формат : DTS
Формат/Информация : Digital Theater Systems
Режим : 16
Параметр Endianness формата : Big
Идентификатор кодека : A_DTS
Продолжительность : 1 ч. 53 м.
Вид битрейта : Постоянный
Битрейт : 1509 Кбит/сек
Каналы : 6 каналов
Расположение каналов : Front: L C R, Side: L R, LFE
Частота : 48,0 КГц
Частота кадров : 93,750 кадра/сек (512 spf)
Битовая глубина : 24 бит
Метод сжатия : С потерями
Размер потока : 1,20 Гбайт (10%)
Язык : English
Default : Нет
Forced : Нет

Текст #1
Идентификатор : 5
Формат : UTF-8
Идентификатор кодека : S_TEXT/UTF8
Идентификатор кодека/Информация : UTF-8 Plain Text
Заголовок : by Enigma
Язык : Russian
Default : Нет
Forced : Нет

Текст #2
Идентификатор : 6
Формат : UTF-8
Идентификатор кодека : S_TEXT/UTF8
Идентификатор кодека/Информация : UTF-8 Plain Text
Язык : English
Default : Нет
Forced : Нет

Текст #3
Идентификатор : 7
Формат : UTF-8
Идентификатор кодека : S_TEXT/UTF8
Идентификатор кодека/Информация : UTF-8 Plain Text
Заголовок : SDH
Язык : English
Default : Нет
Forced : Нет

Меню
00:00:00.000 : en:Chapter 01
00:11:45.583 : en:Chapter 02
00:18:24.500 : en:Chapter 03
00:30:29.541 : en:Chapter 04
00:39:12.375 : en:Chapter 05
00:50:08.125 : en:Chapter 06
00:59:29.250 : en:Chapter 07
01:09:42.416 : en:Chapter 08
01:17:54.083 : en:Chapter 09
01:28:11.333 : en:Chapter 10
01:41:02.708 : en:Chapter 11



Скриншоты:
[+] Всего файлов в раздаче - 1:
Три секунды The Informer 2019 BDRip 1080p.mkv11.52 GB

Похожие раздачи по запросу - секунды:
2020-09-29 U Три секунды / The Informer (2019) BDRip от MegaPeer | GER Transfer | A 2.18 GB ↑ 76 ↓ 9
2019-12-23 U Три секунды / The Informer (2019) WEB-DL 1080p от селезень | D 8.03 GB ↑ 1404 ↓ 1387
2019-12-23 U Три секунды / The Informer (2019) WEB-DLRip от MegaPeer | D 1.46 GB ↑ 2724 ↓ 1040

Отзывы
Зарегистрируйтесь чтобы добавить комментарий.
Загрузите программу
  uTorrent.exe
Обратная связь
Copyleft ©