↑↓torrent.by
Поиск
Логин: Регистрация
Пароль: Восстановить пароль

Золотое кольцо. Путешествие (2017) DVB

Скачать zolotoe-kolco-puteshestvie-2017-dvb.torrent
U Магнитная ссылка Размер: 999.68 MB Раздают: 68 Качают: 6 Добавлен: 2021-01-10 14:02:06
Золотое кольцо. Путешествие (2017) DVB

Название: Золотое кольцо. Путешествие
Год выхода: 2017
Жанр: Документальнй, история, путешествия
Режиссер: Ирма Комладзе

О фильме:
В каждом из городов "Золотого кольца" - множество редкой красоты храмов и монастырей, послуживших "не только вере, но и отечеству". Об этом, а также истории и светской архитектуре городов рассказывают артисты: Василий Бочкарев, Владимир Стеклов, Александр Феклистов, Алексей Кравченко, Анатолий Белый, Егор Бероев. Игорь Петренко, Анна Михалкова, Игорь Гордин, Николай Иванов.

Страна: Россия
Студия: ООО "Фарватер"
Продолжительность: 00:52:42
Перевод: Не требуется

Файл
Кодек: AVC/H.264
Качество: DVB
Видео: 720x576 (16:9) AVC (H.264) Main@L3, 2407 kbps, 25 fps
Звук: Русский 48 kHz, MPEG Layer 2, 2 ch, ~192.00 kbps avg
Субтитры: Русские, отключаемые

Семпл

Релиз от: kyba
[+] MediaInfo
Complete name               : F:НаладкиSD-фильмыЗолотое кольцо_ Путешествие.mkv
Format                      : Matroska
Format version              : Version 4 / Version 2
File size                   : 1 000 MiB
Duration                    : 52 min 42 s
Overall bit rate            : 2 651 kb/s
Encoded date                : UTC 2021-01-08 07:17:45
Writing application         : mkvmerge v6.6.0 ('The Edge Of The In Between') built on Dec  1 2013 17:55:00
Writing library             : libebml v1.3.0 + libmatroska v1.4.1

Video
ID                          : 1
Format                      : AVC
Format/Info                 : Advanced Video Codec
Format profile              : Main@L3
Format settings             : CABAC / 4 Ref Frames
Format settings, CABAC      : Yes
Format settings, RefFrames  : 4 frames
Codec ID                    : V_MPEG4/ISO/AVC
Duration                    : 52 min 42 s
Bit rate                    : 2 407 kb/s
Width                       : 720 pixels
Height                      : 576 pixels
Display aspect ratio        : 16:9
Frame rate mode             : Constant
Frame rate                  : 25.000 FPS
Standard                    : Component
Color space                 : YUV
Chroma subsampling          : 4:2:0
Bit depth                   : 8 bits
Scan type                   : Interlaced
Scan type, store method     : Separated fields
Scan order                  : Top Field First
Bits/(Pixel*Frame)          : 0.232
Stream size                 : 907 MiB (91%)
Default                     : Yes
Forced                      : No
Color range                 : Limited
Color primaries             : BT.601 PAL
Transfer characteristics    : BT.470 System B, BT.470 System G
Matrix coefficients         : BT.470 System B, BT.470 System G

Audio
ID                          : 2
Format                      : MPEG Audio
Format version              : Version 1
Format profile              : Layer 2
Codec ID                    : A_MPEG/L2
Codec ID/Hint               : MP2
Duration                    : 52 min 42 s
Bit rate mode               : Constant
Bit rate                    : 192 kb/s
Channel(s)                  : 2 channels
Sampling rate               : 48.0 kHz
Compression mode            : Lossy
Stream size                 : 72.4 MiB (7%)
Language                    : Russian
Default                     : Yes
Forced                      : No

Text
ID                          : 3
Format                      : UTF-8
Codec ID                    : S_TEXT/UTF8
Codec ID/Info               : UTF-8 Plain Text
Title                       : СВ-Дубль
Default                     : No
Forced                      : No



Скриншоты:
[+] Всего файлов в раздаче - 1:
Золотое кольцо_ Путешествие.mkv999.68 MB

Отзывы
Зарегистрируйтесь чтобы добавить комментарий.
Загрузите программу
  uTorrent.exe
Обратная связь
Copyleft ©