↑↓torrent.by
Поиск
Логин: Регистрация
Пароль: Восстановить пароль

Презумпция виновности (2020) WEB-DL 1080p от ELEKTRI4KA | iTunes

Скачать prezumpciya-vinovnosti-2020-web-dl-1080p-ot-elektri4ka-itunes.torrent
U Магнитная ссылка Размер: 3.18 GB Раздают: 81 Качают: 49 Добавлен: 2021-01-11 05:45:25
Презумпция виновности (2020) WEB-DL 1080p от ELEKTRI4KA | iTunes

Название: Презумпция виновности
Год выхода: 2020
Жанр: драма
Режиссер: Олег Асадулин
В ролях: Донатас Грудович, Анастасия Клюева, Григорий Зельцер, Данил Стеклов, Мария Смольникова, Хильда Кармен, Сергей Чудаков

О фильме: История о группе молодых людей, которые становятся участниками эксперимента по созданию беспристрастной судебной системы под руководством искусственного интеллекта. Постепенно судебное слушание превращается в неподдающийся контролю процесс над самими участниками, которым предстоит узнать к чему приводит «сон разума» и потакание собственным эгоистическим инстинктам, когда срываются маски и личины благопристойности.

Страна: Россия
Студия: Fastmovie, Air Film
Продолжительность: 01:31:55
Озвучивание: Оригинал | iTunes

Файл
Формат: MKV
Качество: WEB-DL 1080p
Видео: MPEG-4 AVC, 4561 Kb/s, 1920x804, 24.000 fps
Аудио: 48 kHz, AC3 Dolby Digital, 3/2 (L, C, R, l, r) + LFE ch, ~384 kbps
Субтитры: Нет
Дополнительно: Сохранены оригинальные чаптеры

Релиз: &


[+] MediaInfo:
Prezumptsiya.vinovnosti.2020.WEB-DL.1080p.ELEKTRI4KA.UNIONGANG.mkv
Format : Matroska
Format version : Version 4
File size : 3.18 GiB
Duration : 1 h 31 min
Overall bit rate : 4 947 kb/s
Movie name : .ELEKTRI4KA.UNIONGANG.
Encoded date : UTC 2021-01-10 19:38:47
Writing application : mkvmerge v8.3.0 ('Over the Horizon') 64bit
Writing library : libebml v1.3.1 + libmatroska v1.4.2

Video
ID : 1
Format : AVC
Format/Info : Advanced Video Codec
Format profile : High@L4
Format settings : CABAC / 5 Ref Frames
Format settings, CABAC : Yes
Format settings, Reference frames : 5 frames
Codec ID : V_MPEG4/ISO/AVC
Duration : 1 h 31 min
Bit rate : 4 561 kb/s
Width : 1 920 pixels
Height : 804 pixels
Display aspect ratio : 2.40:1
Frame rate mode : Constant
Frame rate : 24.000 FPS
Color space : YUV
Chroma subsampling : 4:2:0
Bit depth : 8 bits
Scan type : Progressive
Bits/(Pixel*Frame) : 0.123
Stream size : 2.93 GiB (92%)
Title : .ELEKTRI4KA.UNIONGANG.
Language : English
Default : Yes
Forced : No
Color range : Limited
Color primaries : BT.709
Transfer characteristics : BT.709
Matrix coefficients : BT.709

Audio
ID : 2
Format : AC-3
Format/Info : Audio Coding 3
Commercial name : Dolby Digital
Codec ID : A_AC3
Duration : 1 h 31 min
Bit rate mode : Constant
Bit rate : 384 kb/s
Channel(s) : 6 channels
Channel layout : L R C LFE Ls Rs
Sampling rate : 48.0 kHz
Frame rate : 31.250 FPS (1536 SPF)
Compression mode : Lossy
Stream size : 253 MiB (8%)
Title : Original (iTunes)
Language : Russian
Service kind : Complete Main
Default : Yes
Forced : No

Menu
00:00:00.000 : en:Глава 1
00:08:13.541 : en:Глава 2
00:16:31.874 : en:Глава 3
00:24:48.540 : en:Глава 4
00:32:55.456 : en:Глава 5
00:41:05.247 : en:Глава 6
00:49:16.163 : en:Глава 7
00:57:27.829 : en:Глава 8
01:05:55.370 : en:Глава 9
01:14:02.745 : en:Глава 10
01:22:07.536 : en:Глава 11




Скриншоты:
[+] Всего файлов в раздаче - 1:
Prezumptsiya.vinovnosti.2020.WEB-DL.1080p.ELEKTRI4KA.UNIONGANG.mkv3.18 GB

Похожие раздачи по запросу - презумпция:
2021-01-12 U Презумпция виновности (2020) WEB-DLRip-AVC от OlLanDGroup | iTunes 745.38 MB ↑ 42 ↓ 8
2021-01-11 U Презумпция виновности (2020) WEB-DLRip-AVC от Files-х | iTunes 1.46 GB ↑ 124 ↓ 64
2021-01-11 U Презумпция виновности (2020) WEB-DL 720p от ELEKTRI4KA | iTunes 2.87 GB ↑ 66 ↓ 21
2021-01-11 U Презумпция виновности (2020) WEB-DLRip от ELEKTRI4KA | iTunes 1.36 GB ↑ 87 ↓ 47
2020-09-03 U Презумпция невиновности [01-06 из 16] (2020) SATRip 4.03 GB ↑ 242 ↓ 111

Отзывы
Зарегистрируйтесь чтобы добавить комментарий.
Загрузите программу
  uTorrent.exe
Обратная связь
Copyleft ©