↑↓torrent.by
Поиск
Логин: Регистрация
Пароль: Восстановить пароль

Презумпция виновности (2020) WEB-DLRip-AVC от Files-х | iTunes

Скачать prezumpciya-vinovnosti-2020-web-dlrip-avc-ot-files-h-itunes.torrent
U Магнитная ссылка Размер: 1.46 GB Раздают: 123 Качают: 65 Добавлен: 2021-01-11 14:43:51
Презумпция виновности (2020) WEB-DLRip-AVC от Files-х | iTunes

Название: Презумпция виновности
Год выхода: 2020
Жанр: Драма
Режиссер: Олег Асадулин
В ролях: Донатас Грудович, Анастасия Клюева, Григорий Зельцер, Данил Стеклов, Мария Смольникова, Хильда Кармен, Сергей Чудаков

О фильме: История о группе молодых людей, которые становятся участниками эксперимента по созданию беспристрастной судебной системы под руководством искусственного интеллекта. Постепенно судебное слушание превращается в неподдающийся контролю процесс над самими участниками, которым предстоит узнать к чему приводит «сон разума» и потакание собственным эгоистическим инстинктам, когда срываются маски и личины благопристойности.

Страна: Россия
Студия: Fastmovie, Air Film
Продолжительность: 01:31:55
Перевод: Не требуется | iTunes

Файл
Кодек: h.264
Качество: WEB-DLRip-AVC
Видео: MPEG-4 AVC, ~ 1884 Кбит/с, 1024x432, 24 кадр/с
Аудио: AC3, 6 ch, 384 Кбит/с
Язык: Русский
Субтитры: Нет

Релиз:


[+] MediaInfo:

General
Unique ID                                : 228933596065746053247634863795463802002 (0xAC3B01BD3F2F3A15BC36D58CCBFC4C92)
Complete name                            : F:Prezumptsiya.vinovnosti.(2020).WEB-DLRip.(AVC).by.Серый1779.Files-x.mkv
Format                                   : Matroska
Format version                           : Version 2
File size                                : 1.46 GiB
Duration                                 : 1 h 31 min
Overall bit rate                         : 2 269 kb/s
Encoded date                             : UTC 2021-01-11 01:21:52
Writing application                      : mkvmerge v7.8.0 ('River Man') 32bit built on Apr  3 2015 12:11:22
Writing library                          : libebml v1.3.1 + libmatroska v1.4.2

Video
ID                                       : 1
Format                                   : AVC
Format/Info                              : Advanced Video Codec
Format profile                           : High@L4.1
Format settings                          : CABAC / 10 Ref Frames
Format settings, CABAC                   : Yes
Format settings, RefFrames               : 10 frames
Codec ID                                 : V_MPEG4/ISO/AVC
Duration                                 : 1 h 31 min
Bit rate                                 : 1 884 kb/s
Width                                    : 1 024 pixels
Height                                   : 432 pixels
Display aspect ratio                     : 2.40:1
Frame rate mode                          : Constant
Frame rate                               : 24.000 FPS
Color space                              : YUV
Chroma subsampling                       : 4:2:0
Bit depth                                : 8 bits
Scan type                                : Progressive
Bits/(Pixel*Frame)                       : 0.177
Stream size                              : 1.18 GiB (81%)
Writing library                          : x264 core 146 r2538 121396c
Encoding settings                        : cabac=1 / ref=10 / deblock=1:-2:-1 / analyse=0x3:0x133 / me=umh / subme=11 / psy=1 / psy_rd=1.00:0.08 / mixed_ref=1 / me_range=32 / chroma_me=1 / trellis=2 / 8x8dct=1 / cqm=0 / deadzone=21,11 / fast_pskip=0 / chroma_qp_offset=-3 / threads=18 / lookahead_threads=3 / sliced_threads=0 / nr=0 / decimate=1 / interlaced=0 / bluray_compat=0 / constrained_intra=0 / bframes=11 / b_pyramid=2 / b_adapt=2 / b_bias=0 / direct=1 / weightb=1 / open_gop=0 / weightp=2 / keyint=250 / keyint_min=23 / scenecut=40 / intra_refresh=0 / rc=2pass / mbtree=0 / bitrate=1884 / ratetol=1.0 / qcomp=0.60 / qpmin=0 / qpmax=69 / qpstep=4 / cplxblur=20.0 / qblur=0.5 / ip_ratio=1.40 / pb_ratio=1.30 / aq=2:1.00
Default                                  : Yes
Forced                                   : No
Color range                              : Limited
Color primaries                          : BT.709
Transfer characteristics                 : BT.709
Matrix coefficients                      : BT.709

Audio
ID                                       : 2
Format                                   : AC-3
Format/Info                              : Audio Coding 3
Format settings, Endianness              : Big
Codec ID                                 : A_AC3
Duration                                 : 1 h 31 min
Bit rate mode                            : Constant
Bit rate                                 : 384 kb/s
Channel(s)                               : 6 channels
Channel positions                        : Front: L C R, Side: L R, LFE
Sampling rate                            : 48.0 kHz
Frame rate                               : 31.250 FPS (1536 SPF)
Bit depth                                : 16 bits
Compression mode                         : Lossy
Stream size                              : 253 MiB (17%)
Service kind                             : Complete Main
Default                                  : Yes
Forced                                   : No




Скриншоты:
[+] Всего файлов в раздаче - 1:
Prezumptsiya.vinovnosti.(2020).WEB-DLRip.(AVC).by.Серый1779.Files-x.mkv1.46 GB

Похожие раздачи по запросу - презумпция:
2021-01-12 U Презумпция виновности (2020) WEB-DLRip-AVC от OlLanDGroup | iTunes 745.38 MB ↑ 42 ↓ 8
2021-01-11 U Презумпция виновности (2020) WEB-DL 720p от ELEKTRI4KA | iTunes 2.87 GB ↑ 66 ↓ 22
2021-01-11 U Презумпция виновности (2020) WEB-DL 1080p от ELEKTRI4KA | iTunes 3.18 GB ↑ 81 ↓ 50
2021-01-11 U Презумпция виновности (2020) WEB-DLRip от ELEKTRI4KA | iTunes 1.36 GB ↑ 88 ↓ 47
2020-09-03 U Презумпция невиновности [01-06 из 16] (2020) SATRip 4.03 GB ↑ 242 ↓ 111

Отзывы
Зарегистрируйтесь чтобы добавить комментарий.
Загрузите программу
  uTorrent.exe
Обратная связь
Copyleft ©