↑↓torrent.by
Поиск
Логин: Регистрация
Пароль: Восстановить пароль

Джиу-джитсу: Битва за Землю / Jiu Jitsu (2020) HDRip-AVC от ExKinoRay | iTunes

Скачать dzhiu-dzhitsu-bitva-za-zemlyu-jiu-jitsu-2020-hdrip-avc-ot-exkinoray-itunes.torrent
U Магнитная ссылка Размер: 1.40 GB Раздают: 89 Качают: 13 Добавлен: 2021-01-11 17:12:28
Джиу-джитсу: Битва за Землю / Jiu Jitsu (2020) HDRip-AVC от ExKinoRay | iTunes

Название: Джиу-джитсу: Битва за Землю
Оригинальное название: Jiu Jitsu
Год выхода: 2020
Жанр: боевик, фантастика
Режиссер: Димитри Логотетис
В ролях: Николас Кейдж, Мари Авгеропулос, Фрэнк Грилло, Тони Джа, Рик Юн, Жужу Чан, Ален Мусси, Эдди Стиплз, Маррезе Крамп, Том Уокер

О фильме:  Каждые шесть лет древний орден мастеров джиу-джитсу сражается за Землю с расой безжалостных пришельцев из космоса. Так было тысячи лет, пока ветеран Джейк Барнс не потерпел поражение, и безопасность человечества оказалась под угрозой. Побитого и потерявшего сознание Джейка находят Уайли, Кюн и Харриган. Вместе они должны помочь Джейку набраться сил и остановить пришельца Бракса.

Выпущено: США
Студия: Acme Rocket Fuel, Green Olive Films
Продолжительность: 01:42:06
Озвучивание: Дублированный | iTunes

Формат: MKV
Качество: HDRip-AVC
Видео: MPEG-4 AVC, 720x302, 1586 kbps, 23.976 fps
Аудио : 48 kHz, AC3, 5.1, 384 Kbps | RUS |
Субтитры: Русские, английские

Релиз:

Автор релиза:


[+] ОтчетМедиаИнфо

General
Unique ID                                : 195000623005955803868392950874993922926 (0x92B3C0FFBAF08AE9AFADB973E821136E)
Complete name                            : G:Giu.gitcu.2020.HDRip.AVC.ExKinoRay.mkv
Format                                   : Matroska
Format version                           : Version 2
File size                                : 1.40 GiB
Duration                                 : 1 h 42 min
Overall bit rate                         : 1 967 kb/s
Movie name                               : Jiu jitsu 2020 from ExKinoRay
Encoded date                             : UTC 2021-01-11 03:34:37
Writing application                      : mkvmerge v5.6.0 ('Kenya Kane') built on May 27 2012 16:44:04
Writing library                          : libebml v1.2.3 + libmatroska v1.3.0

Video
ID                                       : 1
Format                                   : AVC
Format/Info                              : Advanced Video Codec
Format profile                           : High@L4.1
Format settings, CABAC                   : Yes
Format settings, ReFrames                : 12 frames
Codec ID                                 : V_MPEG4/ISO/AVC
Duration                                 : 1 h 42 min
Bit rate                                 : 1 586 kb/s
Width                                    : 720 pixels
Height                                   : 302 pixels
Display aspect ratio                     : 2.40:1
Frame rate mode                          : Constant
Frame rate                               : 23.976 (24000/1001) FPS
Color space                              : YUV
Chroma subsampling                       : 4:2:0
Bit depth                                : 8 bits
Scan type                                : Progressive
Bits/(Pixel*Frame)                       : 0.304
Stream size                              : 1.10 GiB (78%)
Title                                    : Enigma
Writing library                          : x264 core 152 r2851 ba24899
Encoding settings                        : cabac=1 / ref=12 / deblock=1:-2:-2 / analyse=0x3:0x113 / me=umh / subme=10 / psy=1 / psy_rd=1.05:0.00 / mixed_ref=1 / me_range=32 / chroma_me=1 / trellis=2 / 8x8dct=1 / cqm=0 / deadzone=21,11 / fast_pskip=0 / chroma_qp_offset=-2 / threads=9 / lookahead_threads=2 / sliced_threads=0 / nr=0 / decimate=0 / interlaced=0 / bluray_compat=0 / constrained_intra=0 / bframes=10 / b_pyramid=2 / b_adapt=2 / b_bias=0 / direct=3 / weightb=1 / open_gop=0 / weightp=2 / keyint=240 / keyint_min=23 / scenecut=40 / intra_refresh=0 / rc=2pass / mbtree=0 / bitrate=1586 / ratetol=1.0 / qcomp=0.60 / qpmin=0 / qpmax=51 / qpstep=4 / cplxblur=20.0 / qblur=0.5 / ip_ratio=1.40 / pb_ratio=1.30 / aq=2:0.80
Default                                  : Yes
Forced                                   : No
Color range                              : Limited
Color primaries                          : BT.709
Transfer characteristics                 : BT.709
Matrix coefficients                      : BT.709

Audio
ID                                       : 2
Format                                   : AC-3
Format/Info                              : Audio Coding 3
Mode extension                           : CM (complete main)
Format settings, Endianness              : Big
Codec ID                                 : A_AC3
Duration                                 : 1 h 42 min
Bit rate mode                            : Constant
Bit rate                                 : 384 kb/s
Channel(s)                               : 6 channels
Channel positions                        : Front: L C R, Side: L R, LFE
Sampling rate                            : 48.0 kHz
Frame rate                               : 31.250 FPS (1536 spf)
Compression mode                         : Lossy
Stream size                              : 280 MiB (20%)
Title                                    : iTunes
Language                                 : Russian
Default                                  : Yes
Forced                                   : No

Text #1
ID                                       : 3
Format                                   : UTF-8
Codec ID                                 : S_TEXT/UTF8
Codec ID/Info                            : UTF-8 Plain Text
Title                                    : Full
Language                                 : Russian
Default                                  : No
Forced                                   : No

Text #2
ID                                       : 4
Format                                   : UTF-8
Codec ID                                 : S_TEXT/UTF8
Codec ID/Info                            : UTF-8 Plain Text
Language                                 : English
Default                                  : No
Forced                                   : No

Menu
00:00:00.000                             : en:Chapter 01
00:14:36.918                             : en:Chapter 02
00:25:12.970                             : en:Chapter 03
00:36:05.121                             : en:Chapter 04
00:44:36.632                             : en:Chapter 05
01:00:16.112                             : en:Chapter 06
01:10:52.165                             : en:Chapter 07
01:23:50.025                             : en:Chapter 08
01:38:04.921                             : en:Chapter 09




Скриншоты:
[+] Всего файлов в раздаче - 1:
Giu.gitcu.2020.HDRip.AVC.ExKinoRay.mkv1.40 GB

Показать еще раздачи по запросу джиу:
2021-01-11 U Джиу-джитсу: Битва за Землю / Jiu Jitsu (2020) BDRip 720p от селезень | iTunes 5.88 GB ↑ 64 ↓ 32
2021-01-11 U Джиу-джитсу: Битва за Землю / Jiu Jitsu (2020) BDRip 1080p от селезень | iTunes 11.22 GB ↑ 61 ↓ 51
2020-12-13 U Джиу-джитсу: Битва за Землю / Jiu Jitsu (2020) HDRip | iTunes 1.46 GB ↑ 79 ↓ 62
2020-11-25 U Джиу-джитсу: Битва за Землю / Jiu Jitsu (2020) WEBRip от Portablius | iTunes 745.28 MB ↑ 116 ↓ 16
2020-11-24 U Джиу-джитсу: Битва за Землю / Jiu Jitsu (2020) WEBRip 720p | iTunes 3.74 GB ↑ 251 ↓ 116
2020-11-24 U Джиу-джитсу: Битва за Землю / Jiu Jitsu (2020) WEB-DLRip от ELEKTRI4KA | iTunes 1.46 GB ↑ 239 ↓ 126
2020-01-26 U Ренцо и Ройлер Грейси - Бразильское Джиу-Джитсу. Теория и Техника (2005) DjVu 4.74 MB ↑ 160 ↓ 8

Отзывы
Зарегистрируйтесь чтобы добавить комментарий.
Загрузите программу
  uTorrent.exe
Обратная связь
Copyleft ©