↑↓torrent.by
Поиск
Логин: Регистрация
Пароль: Восстановить пароль

Люпен / Lupin [S01] (2021) WEB-DLRip 1080p | HDrezka Studio

Скачать lyupen-lupin-s01-2021-web-dlrip-1080p-hdrezka-studio.torrent
U Магнитная ссылка Размер: 13.55 GB Раздают: 63 Качают: 40 Добавлен: 2021-01-12 04:05:41
Люпен / Lupin [S01] (2021) WEB-DLRip 1080p | HDrezka Studio

Название: Люпен
Оригинальное название: Lupin
Год выпуска: 2021
Жанр:  криминал, детектив, драма, боевик
Режиссер: Марсела Саид, Людовик Бернард, Луи Летерье
В ролях: Омар Си, Винсент Лондез, Ширин Бутелла, Николь Гарсия, Антуан Гуи, Клотильда Эсме, Эрве Пьер, Людивин Санье, Кристиан Газио, Софьян Герраб

О фильме: «Люпен» — криминальная драма от французского подразделения Netflix, которая, несмотря на название, отнюдь не является новой экранизацией приключений знаменитого героя французской литературы, джентльмена-грабителя Арсена Люпена. Однако создатели и персонажи шоу отдают должное благородному вору, становясь настоящими последователями его метода как на экране, так и за пределами кадра. Историю «Люпена XXI века» создавали Джордж Кэй («Убивая Еву», «Преступник») и Франсуа Юзан («Семейный бизнес»), а героев, вдохновленных образами других знаменитых персонажей детективов, на экране воплотили Омар Си, Винсент Лондез, Антуан Гуи и другие. Сюжет, начинающийся как грандиозное ограбление самого Лувра, оборачивается историей о поиске правды и справедливости, в которой похищение предмета искусства становится лишь отправной точкой в личном расследовании главного героя, современного последователя Арсена Люпена.

Ассан Диоп (Омар Си) — простой уборщик в Лувре, у которого за плечами не самое благополучное прошлое и ворох проблем в настоящем: невыплаченные алименты бывшей жене (Людивин Санье) и сыну (Этан Симон), долги перед бандитами, которые требуют вернуть деньги как можно скорее. Однако Ассан находит выход, который, как ему кажется, решит все его проблемы — нужно украсть многомиллионное колье из Лувра, которое вот-вот выставят на аукцион. Заручившись поддержкой своих «кредиторов», Ассан планирует хитрое ограбление, в ходе которого становится понятно, что ночной уборщик в Лувре отнюдь не так прост и преследует цели, которые выходят далеко за пределы стремлений наладить безбедную жизнь...

Страна: США, Франция
Студия: Gaumont Télévision, NetFlix
Продолжительность: ~00:48:00 серия
Перевод: Профессиональный (многоголосый, закадровый) HDrezka Studio

Файл
Качество: WEB-DLRip 1080p
Формат: Matroska
Видео: 1920x960 at 25.000 fps, x264, ~7500 kbps avg
Аудио#1: Russian: 48 kHz, AC3, 3/2 (L,C,R,l,r) + LFE ch, ~384 kbps avg |Многоголосый закадровый, HDrezka Studio|
Аудио#2: French: 48 kHz, AC3, 3/2 (L,C,R,l,r) + LFE ch, ~640 kbps avg
Аудио#3: English: 48 kHz, AC3, 3/2 (L,C,R,l,r) + LFE ch, ~640 kbps avg
Субтитры: Russian (Forced, Full), English (SDH) и другие

***Примечание: Без рекламы
***Релиз: Atla22@EniaHD


[+] MediaInfo
Общее
Уникальный идентификатор                 : 200631480693319606368299517503989259663 (0x96F037B79BE90EBDA39E589482CA9D8F)
Полное имя                               : Lupin.2021.s01e01. Эпизод 1.mkv
Формат                                   : Matroska
Версия формата                           : Version 2
Размер файла                             : 3,02 Гбайт
Продолжительность                        : 46 м. 19 с.
Общий поток                              : 9 346 Кбит/сек
Название фильма                          : Lupin.2021.S01E01.WEB-DLRip 1080p.EniaHD@Atla22
Дата кодирования                         : UTC 2021-01-10 15:22:53
Программа кодирования                    : mkvmerge v6.9.1 ('Blue Panther') 32bit built on Apr 18 2014 18:15:44
Библиотека кодирования                   : libebml v1.3.0 + libmatroska v1.4.1

Видео
Идентификатор                            : 1
Формат                                   : AVC
Формат/Информация                        : Advanced Video Codec
Профиль формата                          : High@L4.1
Настройки формата                        : CABAC / 4 Ref Frames
Параметр CABAC формата                   : Да
Параметр RefFrames формата               : 4 кадра
Идентификатор кодека                     : V_MPEG4/ISO/AVC
Продолжительность                        : 46 м. 19 с.
Битрейт                                  : 7 496 Кбит/сек
Ширина                                   : 1 920 пикселей
Высота                                   : 960 пикселей
Соотношение сторон                       : 2,000
Режим частоты кадров                     : Постоянный
Частота кадров                           : 25,000 кадров/сек
Цветовое пространство                    : YUV
Субдискретизация насыщенности            : 4:2:0
Битовая глубина                          : 8 бит
Тип развёртки                            : Прогрессивная
Бит/(Пиксели*Кадры)                      : 0.163
Размер потока                            : 2,43 Гбайт (80%)
Библиотека кодирования                   : x264 core 157 r2935 545de2f
Настройки программы                      : cabac=1 / ref=4 / deblock=1:-3:-3 / analyse=0x3:0x133 / me=umh / subme=10 / psy=1 / psy_rd=1.00:0.00 / mixed_ref=1 / me_range=48 / chroma_me=1 / trellis=2 / 8x8dct=1 / cqm=0 / deadzone=21,11 / fast_pskip=0 / chroma_qp_offset=-2 / threads=18 / lookahead_threads=3 / sliced_threads=0 / nr=0 / decimate=0 / interlaced=0 / bluray_compat=0 / constrained_intra=0 / bframes=8 / b_pyramid=2 / b_adapt=2 / b_bias=0 / direct=3 / weightb=1 / open_gop=0 / weightp=2 / keyint=250 / keyint_min=23 / scenecut=40 / intra_refresh=0 / rc=crf / mbtree=0 / crf=17.0 / qcomp=0.60 / qpmin=0 / qpmax=69 / qpstep=4 / ip_ratio=1.30 / pb_ratio=1.20 / aq=3:0.80
Язык                                     : French
Default                                  : Да
Forced                                   : Нет
Цветовой диапазон                        : Limited
Основные цвета                           : BT.709
Характеристики трансфера                 : BT.709
Коэффициенты матрицы                     : BT.709

Аудио #1
Идентификатор                            : 2
Формат                                   : AC-3
Формат/Информация                        : Audio Coding 3
Коммерческое название                    : Dolby Digital
Идентификатор кодека                     : A_AC3
Продолжительность                        : 46 м. 19 с.
Вид битрейта                             : Постоянный
Битрейт                                  : 384 Кбит/сек
Каналы                                   : 6 каналов
Channel layout                           : L R C LFE Ls Rs
Частота                                  : 48,0 КГц
Частота кадров                           : 31,250 кадров/сек (1536 SPF)
Метод сжатия                             : С потерями
Размер потока                            : 127 Мбайт (4%)
Заголовок                                : HDRezka Studio
Язык                                     : Russian
Service kind                             : Complete Main
Default                                  : Да
Forced                                   : Нет

Аудио #2
Идентификатор                            : 3
Формат                                   : AC-3
Формат/Информация                        : Audio Coding 3
Коммерческое название                    : Dolby Digital
Идентификатор кодека                     : A_AC3
Продолжительность                        : 46 м. 19 с.
Вид битрейта                             : Постоянный
Битрейт                                  : 640 Кбит/сек
Каналы                                   : 6 каналов
Channel layout                           : L R C LFE Ls Rs
Частота                                  : 48,0 КГц
Частота кадров                           : 31,250 кадров/сек (1536 SPF)
Метод сжатия                             : С потерями
Размер потока                            : 212 Мбайт (7%)
Язык                                     : French
Service kind                             : Complete Main
Default                                  : Нет
Forced                                   : Нет

Аудио #3
Идентификатор                            : 4
Формат                                   : AC-3
Формат/Информация                        : Audio Coding 3
Коммерческое название                    : Dolby Digital
Идентификатор кодека                     : A_AC3
Продолжительность                        : 46 м. 19 с.
Вид битрейта                             : Постоянный
Битрейт                                  : 640 Кбит/сек
Каналы                                   : 6 каналов
Channel layout                           : L R C LFE Ls Rs
Частота                                  : 48,0 КГц
Частота кадров                           : 31,250 кадров/сек (1536 SPF)
Метод сжатия                             : С потерями
Размер потока                            : 212 Мбайт (7%)
Язык                                     : English
Service kind                             : Complete Main
Default                                  : Нет
Forced                                   : Нет

Текст #1
Идентификатор                            : 5
Формат                                   : UTF-8
Идентификатор кодека                     : S_TEXT/UTF8
Идентификатор кодека/Информация          : UTF-8 Plain Text
Заголовок                                : Forced
Язык                                     : Russian
Default                                  : Да
Forced                                   : Да

Текст #2
Идентификатор                            : 6
Формат                                   : UTF-8
Идентификатор кодека                     : S_TEXT/UTF8
Идентификатор кодека/Информация          : UTF-8 Plain Text
Язык                                     : Russian
Default                                  : Нет
Forced                                   : Нет

Текст #3
Идентификатор                            : 7
Формат                                   : UTF-8
Идентификатор кодека                     : S_TEXT/UTF8
Идентификатор кодека/Информация          : UTF-8 Plain Text
Заголовок                                : SDH
Язык                                     : English
Default                                  : Нет
Forced                                   : Нет

Текст #4
Идентификатор                            : 8
Формат                                   : UTF-8
Идентификатор кодека                     : S_TEXT/UTF8
Идентификатор кодека/Информация          : UTF-8 Plain Text
Язык                                     : German
Default                                  : Нет
Forced                                   : Нет

Текст #5
Идентификатор                            : 9
Формат                                   : UTF-8
Идентификатор кодека                     : S_TEXT/UTF8
Идентификатор кодека/Информация          : UTF-8 Plain Text
Заголовок                                : SDH
Язык                                     : French
Default                                  : Нет
Forced                                   : Нет

Текст #6
Идентификатор                            : 10
Формат                                   : UTF-8
Идентификатор кодека                     : S_TEXT/UTF8
Идентификатор кодека/Информация          : UTF-8 Plain Text
Язык                                     : Italian
Default                                  : Нет
Forced                                   : Нет

Текст #7
Идентификатор                            : 11
Формат                                   : UTF-8
Идентификатор кодека                     : S_TEXT/UTF8
Идентификатор кодека/Информация          : UTF-8 Plain Text
Язык                                     : Spanish
Default                                  : Нет
Forced                                   : Нет

Текст #8
Идентификатор                            : 12
Формат                                   : UTF-8
Идентификатор кодека                     : S_TEXT/UTF8
Идентификатор кодека/Информация          : UTF-8 Plain Text
Язык                                     : Dutch
Default                                  : Нет
Forced                                   : Нет

Текст #9
Идентификатор                            : 13
Формат                                   : UTF-8
Идентификатор кодека                     : S_TEXT/UTF8
Идентификатор кодека/Информация          : UTF-8 Plain Text
Язык                                     : Portuguese
Default                                  : Нет
Forced                                   : Нет



Скриншоты:
[+] Всего файлов в раздаче - 5:
Lupin.2021.s01e01. Эпизод 1.mkv3.02 GB
Lupin.2021.s01e02. Эпизод 2.mkv3.18 GB
Lupin.2021.s01e03. Эпизод 3.mkv2.53 GB
Lupin.2021.s01e04. Эпизод 4.mkv2.41 GB
Lupin.2021.s01e05. Эпизод 5.mkv2.41 GB

Похожие раздачи по запросу - люпен:
2021-01-09 U Люпен / Lupin [S01] (2021) WEBRip 720p | IdeaFilm 6.16 GB ↑ 48 ↓ 48
2021-01-09 U Люпен / Lupin [S01] (2021) WEBRip 1080p | IdeaFilm 11.02 GB ↑ 84 ↓ 53
2021-01-09 U Люпен / Lupin [S01] (2021) WEBRip | IdeaFilm 3.11 GB ↑ 81 ↓ 52
2020-12-14 U Люпен III: Первый / Lupin III: The First (2019) BDRip 1080p от ELEKTRI4KA | iTunes 7.65 GB ↑ 33 ↓ 12
2020-12-13 U Люпен III: Первый / Lupin III: The First (2019) BDRip от MegaPeer | iTunes 1.42 GB ↑ 161 ↓ 35

Отзывы
Зарегистрируйтесь чтобы добавить комментарий.
Загрузите программу
  uTorrent.exe
Обратная связь
Copyleft ©