↑↓torrent.by
Поиск
Логин: Регистрация
Пароль: Восстановить пароль

Презумпция виновности (2020) WEB-DLRip-AVC от OlLanDGroup | iTunes

Скачать prezumpciya-vinovnosti-2020-web-dlrip-avc-ot-ollandgroup-itunes.torrent
U Магнитная ссылка Размер: 745.38 MB Раздают: 42 Качают: 8 Добавлен: 2021-01-12 04:05:47
Презумпция виновности (2020) WEB-DLRip-AVC от OlLanDGroup | iTunes

Название: Презумпция виновности
Год выхода: 2020
Жанр: драма
Режиссер: Олег Асадулин
В ролях: Донатас Грудович, Анастасия Клюева, Григорий Зельцер, Данил Стеклов, Мария Смольникова, Хильда Кармен, Сергей Чудаков

О фильме: История о группе молодых людей, которые становятся участниками эксперимента по созданию беспристрастной судебной системы под руководством искусственного интеллекта. Постепенно судебное слушание превращается в неподдающийся контролю процесс над самими участниками, которым предстоит узнать к чему приводит «сон разума» и потакание собственным эгоистическим инстинктам, когда срываются маски и личины благопристойности.

Страна: Россия
Студия: Fastmovie, Air Film
Продолжительность: 01:31:55
Озвучивание: Оригинал | iTunes

Файл
Формат: MKV
Качество: WEB-DLRip-AVC
Видео: 720x302 (2.40:1), 24 fps, x264 ~1068 kbps avg, 0.205 bit/pixel
Звук: 48 kHz, HE-AAC, 2 ch, ~64 kbps avg
Субтитры: Отсутствуют

Релиз:


[+] MediaInfo:
Format                         : Matroska
Format version                 : Version 4
File size                      : 745 MiB
Duration                       : 1 h 31 min
Overall bit rate               : 1 134 kb/s
Movie name                     : Презумпция виновности (2020) WEB-DLRip-AVC от OlLanDGroup#Skandar
Encoded date                   : UTC 2021-01-11 12:10:49
Writing application            : mkvmerge v31.0.0 ('Dolores In A Shoestand') 64-bit
Writing library                : libebml v1.3.6 + libmatroska v1.4.9

Video
ID                             : 1
Format                         : AVC
Format/Info                    : Advanced Video Codec
Format profile                 : High@L4.1
Format settings                : CABAC / 10 Ref Frames
Format settings, CABAC         : Yes
Format settings, ReFrames      : 10 frames
Codec ID                       : V_MPEG4/ISO/AVC
Duration                       : 1 h 31 min
Bit rate                       : 1 068 kb/s
Width                          : 720 pixels
Height                         : 302 pixels
Display aspect ratio           : 2.40:1
Frame rate mode                : Constant
Frame rate                     : 24.000 FPS
Color space                    : YUV
Chroma subsampling             : 4:2:0
Bit depth                      : 8 bits
Scan type                      : Progressive
Bits/(Pixel*Frame)             : 0.205
Stream size                    : 702 MiB (94%)
Title                          : Презумпция виновности (2020) WEB-DLRip-AVC от OlLanDGroup#Skandar
Writing library                : x264 core 146 r2538 121396c
Encoding settings              : cabac=1 / ref=10 / deblock=1:-3:-3 / analyse=0x3:0x133 / me=umh / subme=11 / psy=1 / psy_rd=0.95:0.05 / mixed_ref=1 / me_range=32 / chroma_me=1 / trellis=2 / 8x8dct=1 / cqm=0 / deadzone=21,11 / fast_pskip=0 / chroma_qp_offset=-3 / threads=6 / lookahead_threads=1 / sliced_threads=0 / nr=0 / decimate=0 / interlaced=0 / bluray_compat=0 / constrained_intra=0 / bframes=10 / b_pyramid=2 / b_adapt=2 / b_bias=0 / direct=3 / weightb=1 / open_gop=0 / weightp=2 / keyint=240 / keyint_min=24 / scenecut=40 / intra_refresh=0 / rc_lookahead=40 / rc=2pass / mbtree=1 / bitrate=1068 / ratetol=1.0 / qcomp=0.60 / qpmin=0 / qpmax=69 / qpstep=4 / cplxblur=20.0 / qblur=0.5 / vbv_maxrate=50000 / vbv_bufsize=62500 / nal_hrd=none / filler=0 / ip_ratio=1.40 / aq=1:1.00
Default                        : Yes
Forced                         : No

Audio
ID                             : 2
Format                         : AAC LC SBR
Format/Info                    : Advanced Audio Codec Low Complexity with Spectral Band Replication
Commercial name                : HE-AAC
Format settings                : Explicit
Codec ID                       : A_AAC-2
Duration                       : 1 h 31 min
Bit rate                       : 64.0 kb/s
Channel(s)                     : 2 channels
Channel layout                 : L R
Sampling rate                  : 48.0 kHz
Frame rate                     : 23.438 FPS (2048 SPF)
Compression mode               : Lossy
Delay relative to video        : 31 ms
Stream size                    : 42.1 MiB (6%)
Title                          : Original (iTunes)
Language                       : Russian
Default                        : Yes
Forced                         : No

Menu
00:00:00.000                   : en:Глава 1
00:08:13.541                   : en:Глава 2
00:16:31.874                   : en:Глава 3
00:24:48.540                   : en:Глава 4
00:32:55.456                   : en:Глава 5
00:41:05.247                   : en:Глава 6
00:49:16.163                   : en:Глава 7
00:57:27.829                   : en:Глава 8
01:05:55.370                   : en:Глава 9
01:14:02.745                   : en:Глава 10
01:22:07.536                   : en:Глава 11



Скриншоты:
[+] Всего файлов в раздаче - 1:
Prezumptsiya.vinovnosti.2020.WEB-DLRip(AVC).745Mb.OlLanDGroup.mkv745.38 MB

Похожие раздачи по запросу - презумпция:
2021-01-11 U Презумпция виновности (2020) WEB-DLRip-AVC от Files-х | iTunes 1.46 GB ↑ 124 ↓ 64
2021-01-11 U Презумпция виновности (2020) WEB-DL 720p от ELEKTRI4KA | iTunes 2.87 GB ↑ 66 ↓ 21
2021-01-11 U Презумпция виновности (2020) WEB-DL 1080p от ELEKTRI4KA | iTunes 3.18 GB ↑ 81 ↓ 49
2021-01-11 U Презумпция виновности (2020) WEB-DLRip от ELEKTRI4KA | iTunes 1.36 GB ↑ 87 ↓ 47
2020-09-03 U Презумпция невиновности [01-06 из 16] (2020) SATRip 4.03 GB ↑ 242 ↓ 111

Отзывы
Зарегистрируйтесь чтобы добавить комментарий.
Загрузите программу
  uTorrent.exe
Обратная связь
Copyleft ©