↑↓torrent.by
Поиск
Логин: Регистрация
Пароль: Восстановить пароль

История бранных слов / History of Swear Words [S01] (2021) WEB-DLRip | Jaskier

Скачать istoriya-brannyh-slov-history-of-swear-words-s01-2021-web-dlrip-jaskier.torrent
U Магнитная ссылка Размер: 1.57 GB Раздают: 35 Качают: 13 Добавлен: 2021-01-12 04:06:07
История бранных слов / History of Swear Words [S01] (2021) WEB-DLRip | Jaskier

Название: История бранных слов
Оригинальное название: History of Swear Words
Год выпуска: 2021
Жанр:  документальный, комедия
Режиссер: Кристофер Д Илайа
В ролях: Никки Глейсер, Лондон Хьюз, Элвис Митчелл, Кори Стэмпер, Николас Кейдж, ДеРэй Дэвис, Ник Офферман, Сара Силверман

О фильме: Этот крайне непристойный сериал посвящен самым распространенным бранным словам английского языка, их истории и влиянии на культуру. Ведущий — актер Николас Кейдж.

Страна: США
Студия: B-17 Entertainment, Funny or Die
Продолжительность: ~00:20:00 серия
Перевод: Профессиональный (многоголосый, закадровый) Jaskier

Файл
Качество: WEB-DLRip
Формат: AVI
Видео: 720x400 at 23.976 fps, XviD, ~1400 kbps avg
Аудио: Russian: 48 kHz, AC3, 3/2 (L,C,R,l,r) + LFE ch, ~384 kbps avg |Многоголосый закадровый, Jaskier|
Субтитры: None

***Примечание: Без рекламы
***Внимание! Присутствует ненормативная лексика!


[+] MediaInfo
Общее
Полное имя                               : History.of.Swear.Words.S01E01.avi
Формат                                   : AVI
Формат/Информация                        : Audio Video Interleave
Размер файла                             : 270 Мбайт
Продолжительность                        : 20 м. 53 с.
Общий поток                              : 1 807 Кбит/сек
Программа кодирования                    : VirtualDubMod 1.5.10.3 (build 2550/release)
Библиотека кодирования                   : VirtualDubMod build 2550/release

Видео
Идентификатор                            : 0
Формат                                   : MPEG-4 Visual
Профиль формата                          : Advanced Simple@L5
Настройки формата                        : BVOP1 / Custom Matrix
Параметр BVOP формата                    : 1
Параметр QPel формата                    : Нет
Параметр GMC формата                     : Без точки перехода
Параметр матрицы формата                 : Выборочная
Идентификатор кодека                     : XVID
Идентификатор кодека/Подсказка           : XviD
Продолжительность                        : 20 м. 53 с.
Битрейт                                  : 1 414 Кбит/сек
Ширина                                   : 720 пикселей
Высота                                   : 400 пикселей
Соотношение сторон                       : 16:9
Частота кадров                           : 23,976 (24000/1001) кадра/сек
Цветовое пространство                    : YUV
Субдискретизация насыщенности            : 4:2:0
Битовая глубина                          : 8 бит
Тип развёртки                            : Прогрессивная
Метод сжатия                             : С потерями
Бит/(Пиксели*Кадры)                      : 0.205
Размер потока                            : 211 Мбайт (78%)
Библиотека кодирования                   : XviD 73

Аудио
Идентификатор                            : 1
Формат                                   : AC-3
Формат/Информация                        : Audio Coding 3
Коммерческое название                    : Dolby Digital
Идентификатор кодека                     : 2000
Продолжительность                        : 20 м. 53 с.
Вид битрейта                             : Постоянный
Битрейт                                  : 384 Кбит/сек
Каналы                                   : 6 каналов
Channel layout                           : L R C LFE Ls Rs
Частота                                  : 48,0 КГц
Частота кадров                           : 31,250 кадров/сек (1536 SPF)
Метод сжатия                             : С потерями
Размер потока                            : 57,4 Мбайт (21%)
Выравнивание                             : Разделение по промежуткам
Продолжительность промежутка             : 42  мс. (1,00 видеокадр)
Время предзагрузки промежутка            : 500  мс.
Service kind                             : Complete Main



Скриншоты:
[+] Всего файлов в раздаче - 6:
History.of.Swear.Words.S01E01.avi270.12 MB
History.of.Swear.Words.S01E02.avi270.09 MB
History.of.Swear.Words.S01E03.avi270.14 MB
History.of.Swear.Words.S01E04.avi268.62 MB
History.of.Swear.Words.S01E05.avi263.54 MB
History.of.Swear.Words.S01E06.avi263.06 MB

Показать еще раздачи по запросу история:
2021-01-12 U История бранных слов / History of Swear Words [S01] (2021) WEB-DL 1080p | Jaskier 4.08 GB ↑ 36 ↓ 13
2021-01-12 U История бранных слов / History of Swear Words [S01] (2021) WEB-DL 720p | Jaskier 2.62 GB ↑ 23 ↓ 8
2021-01-11 U История бранных слов / History of Swear Words [S01] (2021) WEB-DLRip | Jaskier 1.46 GB ↑ 59 ↓ 24
2021-01-01 U Рождественская история / A Christmas Carol (2009) BDRemux 1080p от KORSAR | D, A 19.60 GB ↑ 27 ↓ 7
2020-12-10 U Секретные материалы. Ищите женщину: неизвестная история Карибского кризиса (2020) SATRip 513.90 MB ↑ 32 ↓ 14
2020-12-10 U Невероятная история Острова роз / L'incredibile storia dell'isola delle rose (2020) WEB-DL 720p от селезень | Netflix 3.24 GB ↑ 74 ↓ 17
2020-12-09 U Невероятная история Острова роз / L'incredibile storia dell'isola delle rose (2020) WEB-DLRip от MegaPeer | NetFlix 1.46 GB ↑ 151 ↓ 48

Отзывы
Зарегистрируйтесь чтобы добавить комментарий.
Загрузите программу
  uTorrent.exe
Обратная связь
Copyleft ©