↑↓torrent.by
Поиск
Логин: Регистрация
Пароль: Восстановить пароль

Душа / Soul (2020) WEB-DL 1080p от MegaPeer | HDRezka Studio

Скачать dusha-soul-2020-web-dl-1080p-ot-megapeer-hdrezka-studio.torrent
U Магнитная ссылка Размер: 5.56 GB Раздают: 172 Качают: 143 Добавлен: 2021-01-12 12:58:42
Душа / Soul (2020) WEB-DL 1080p от MegaPeer | HDRezka Studio

«Everybody has a soul. Joe Gardner is about to find his»

Информация
Название: Душа
Оригинальное название: Soul
Год выхода: 2020
Жанр: Мультфильм, фэнтези, комедия, приключения, семейный, музыка
Режиссер: Пит Доктер, Кемп Пауэрс
Роли озвучивают: Джейми Фокс, Тина Фей, Филисия Рашад, Давид Диггс, Анджела Бассетт, Грэм Нортон, Рэйчел Хаус, Алиси Брага, Ричард Айоади, Доннел Роулингс

Описание:  
Уже немолодой школьный учитель музыки Джо Гарднер всю жизнь мечтал выступать на сцене в составе джазового ансамбля. Однажды он успешно проходит прослушивание у известной клубной певицы и, возвращаясь домой вне себя от счастья, падает в люк и умирает. Теперь у Джо одна дорога - в Великое После, но он сбегает с идущего в вечность эскалатора и случайно попадает в Великое До. Тут новенькие души обретают себя, и у будущих людей зарождаются увлечения, мечты и интересы. Джо становится наставником упрямой души 22, которая уже много веков не может найти свою искру и отправиться на Землю.

Страна: США
Студия: Pixar Animation Studios, Walt Disney Pictures
Продолжительность: 01:40:32
Перевод: Профессиональный (многоголосый, закадровый) | HDRezka Studio

Файл
Качество: WEB-DL 1080p
Формат: MKV
Кодек: MPEG-4 AVC
Видео: 1920x1080 (16:9), 23.976 fps, MPEG-4 AVC ~ 6700 Kbps avg, 0.135 bit/pixel
Аудио: AC3, 48 kHz, 6 ch, ~448.00 kbps avg | русский | HDRezka Studio
Аудио: E-AC3, 48 kHz, 6 ch, ~768.00 kbps avg | английский |
Субтитры: Русские (Forced, Full(FOCS)), украинские (Full), английские (SDH)

Релиз:


[+] Инфо-файл
Общее
Уникальный идентификатор                 : 146028839343922559293466127267689930244 (0x6DDC21A64AA187D302B3DB57E99C1E04)
Полное имя                               : Soul.2020.MVO.1080p.WEB-DL.MegaPeer.mkv
Формат                                   : Matroska
Версия формата                           : Version 4
Размер файла                             : 5,56 Гбайт
Продолжительность                        : 1 ч. 40 м.
Режим общего битрейта                    : Переменный
Общий поток                              : 7 919 Кбит/сек
Название фильма                          : Душа / Soul (2020) от MegaPeer
Дата кодирования                         : UTC 2021-01-12 06:43:41
Программа кодирования                    : mkvmerge v47.0.0 ('Black Flag') 64-bit
Библиотека кодирования                   : libebml v1.3.10 + libmatroska v1.5.2
Обложка                                  : Yes
Attachments                              : cover.jpg

Видео
Идентификатор                            : 1
Формат                                   : AVC
Формат/Информация                        : Advanced Video Codec
Профиль формата                          : High@L4
Настройки формата                        : CABAC / 4 Ref Frames
Параметр CABAC формата                   : Да
Параметр RefFrames формата               : 4 кадра
Идентификатор кодека                     : V_MPEG4/ISO/AVC
Продолжительность                        : 1 ч. 40 м.
Вид битрейта                             : Переменный
Битрейт                                  : 6 700 Кбит/сек
Максимальный битрейт                     : 12,7 Мбит/сек
Ширина                                   : 1 920 пикселей
Высота                                   : 1 080 пикселей
Соотношение сторон                       : 16:9
Режим частоты кадров                     : Постоянный
Частота кадров                           : 23,976 (24000/1001) кадра/сек
Цветовое пространство                    : YUV
Субдискретизация насыщенности            : 4:2:0
Битовая глубина                          : 8 бит
Тип развёртки                            : Прогрессивная
Бит/(Пиксели*Кадры)                      : 0.135
Размер потока                            : 4,70 Гбайт (85%)
Язык                                     : English
Default                                  : Да
Forced                                   : Нет
Цветовой диапазон                        : Limited
Основные цвета                           : BT.709
Характеристики трансфера                 : BT.709
Коэффициенты матрицы                     : BT.709

Аудио #1
Идентификатор                            : 2
Формат                                   : AC-3
Формат/Информация                        : Audio Coding 3
Коммерческое название                    : Dolby Digital
Идентификатор кодека                     : A_AC3
Продолжительность                        : 1 ч. 40 м.
Вид битрейта                             : Постоянный
Битрейт                                  : 448 Кбит/сек
Каналы                                   : 6 каналов
Channel layout                           : L R C LFE Ls Rs
Частота                                  : 48,0 КГц
Частота кадров                           : 31,250 кадров/сек (1536 SPF)
Метод сжатия                             : С потерями
Размер потока                            : 322 Мбайт (6%)
Заголовок                                : MVO | HDRezka Studio
Язык                                     : Russian
Service kind                             : Complete Main
Default                                  : Да
Forced                                   : Нет

Аудио #2
Идентификатор                            : 3
Формат                                   : E-AC-3 JOC
Формат/Информация                        : Enhanced AC-3 with Joint Object Coding
Коммерческое название                    : Dolby Digital Plus with Dolby Atmos
Идентификатор кодека                     : A_EAC3
Продолжительность                        : 1 ч. 40 м.
Вид битрейта                             : Постоянный
Битрейт                                  : 768 Кбит/сек
Каналы                                   : 6 каналов
Channel layout                           : L R C LFE Ls Rs
Частота                                  : 48,0 КГц
Частота кадров                           : 31,250 кадров/сек (1536 SPF)
Метод сжатия                             : С потерями
Размер потока                            : 552 Мбайт (10%)
Язык                                     : English
Service kind                             : Complete Main
Default                                  : Нет
Forced                                   : Нет

Текст #1
Идентификатор                            : 4
Формат                                   : UTF-8
Идентификатор кодека                     : S_TEXT/UTF8
Идентификатор кодека/Информация          : UTF-8 Plain Text
Продолжительность                        : 1 ч. 9 м.
Битрейт                                  : 1 бит/сек
Count of elements                        : 22
Размер потока                            : 1 016 байт (0%)
Заголовок                                : Forced
Язык                                     : Russian
Default                                  : Да
Forced                                   : Да

Текст #2
Идентификатор                            : 5
Формат                                   : UTF-8
Идентификатор кодека                     : S_TEXT/UTF8
Идентификатор кодека/Информация          : UTF-8 Plain Text
Продолжительность                        : 1 ч. 40 м.
Битрейт                                  : 110 бит/сек
Count of elements                        : 1546
Размер потока                            : 81,2 Кбайт (0%)
Заголовок                                : Full (FOCS)
Язык                                     : Russian
Default                                  : Нет
Forced                                   : Нет

Текст #3
Идентификатор                            : 6
Формат                                   : UTF-8
Идентификатор кодека                     : S_TEXT/UTF8
Идентификатор кодека/Информация          : UTF-8 Plain Text
Продолжительность                        : 1 ч. 39 м.
Битрейт                                  : 119 бит/сек
Count of elements                        : 1599
Размер потока                            : 87,4 Кбайт (0%)
Заголовок                                : Full
Язык                                     : Ukrainian
Default                                  : Нет
Forced                                   : Нет

Текст #4
Идентификатор                            : 7
Формат                                   : UTF-8
Идентификатор кодека                     : S_TEXT/UTF8
Идентификатор кодека/Информация          : UTF-8 Plain Text
Продолжительность                        : 1 ч. 40 м.
Битрейт                                  : 78 бит/сек
Count of elements                        : 1857
Размер потока                            : 57,7 Кбайт (0%)
Заголовок                                : SDH
Язык                                     : English
Default                                  : Нет
Forced                                   : Нет



Скриншоты:
[+] Всего файлов в раздаче - 1:
Soul.2020.MVO.1080p.WEB-DL.MegaPeer.mkv5.56 GB

Показать еще раздачи по запросу душа:
2021-01-20 U Бэтмен: Душа дракона / Batman: Soul of the Dragon (2021) WEBRip 1080p | Flarrow Films 3.46 GB ↑ 43 ↓ 5
2021-01-14 U Бэтмен: Душа дракона / Batman: Soul of the Dragon (2021) WEBRip 1080p от NewComers | P 3.72 GB ↑ 78 ↓ 15
2021-01-13 U Душа / Soul (2020) WEB-DLRip-AVC | P | HDRezka Studio 745.31 MB ↑ 47 ↓ 7
2021-01-12 U Душа / Soul (2020) WEB-DLRip от MegaPeer | HDRezka Studio 1.46 GB ↑ 178 ↓ 81
2021-01-10 U Душа / Soul (2020) WEB-DLRip | Line | UKR 1.46 GB ↑ 63 ↓ 9
2021-01-10 U Душа / Soul (2020) WEB-DL 1080p | Line | UKR 5.38 GB ↑ 30 ↓ 14
2021-01-03 U Душа / Soul (2020) WEB-DL-HEVC 2160p | 4K | HDR | L 16.76 GB ↑ 77 ↓ 29

Отзывы
Зарегистрируйтесь чтобы добавить комментарий.
Загрузите программу
  uTorrent.exe
Обратная связь
Copyleft ©