↑↓torrent.by
Поиск
Логин: Регистрация
Пароль: Восстановить пароль

Одесса-мама / Жемчужина у моря [01-12 из 12] (2012) WEBRip 1080p

Скачать odessa-mama-zhemchuzhina-u-morya-01-12-iz-2012-webrip-1080p.torrent
U Магнитная ссылка Размер: 18.18 GB Раздают: 70 Качают: 110 Добавлен: 2021-01-12 12:59:01
Одесса-мама / Жемчужина у моря [01-12 из 12] (2012) WEBRip 1080p

Название: Одесса-мама / Жемчужина у моря
Год выхода: 2012
Жанр: Детектив
Режиссер: Марк Горобец
В ролях: Дмитрий Дюжев, Екатерина Гусева, Эвклид Кюрдзидис, Светлана Устинова, Ольга Филимонова, Агния Кузнецова, Пётр Фёдоров мл., Александр Алябьев, Михаил Тарабукин, Александр Доронин, Тимофей Трибунцев, Константин Косинский, Станислав Боклан, Олеся Жураковская, Сергей Калантай

О фильме:
Одессу называли по-разному: «Жемчужина Черного моря», «Маленький Париж», «Южная Пальмира», однако репутация «главной воровской столицы страны» прочно закрепила за этим живописным городом еще одно название - «Одесса-мама». Приморский город с его колоритным юмором, особым свободолюбивым духом и неиссякаемой коммерческой жилкой издавна становился приютом для тех, кто не в ладу с законом. И совсем не удивительно, что в историю города вписаны не только знаменитые мошенники, бандиты и воры, но и отважные стражи правопорядка...

Страна: Украина
Студия: ООО «Украинская Продакшн Студия»
Продолжительность: 12 x ~ 00:43:00
Язык: Русский
Примечание: Без рекламы

Файл
Формат: MKV
Качество: WEBRip 1080p
Видео: MPEG-4 AVC, ~ 5000 Кбит/с, 1920x1080
Звук: AC3, 2 ch, 192 Кбит/с
Субтитры: Отсутствуют


[+] MI
Общее
Уникальный идентификатор                 : 246599182574487075228842016924913789288 (0xB985466647902085940775D4DD4A6968)
Полное имя                               : D:Odessa-Mama.2012.WEB-DL.(1080p).shevanlkE01.Odessa-Mama.mkv
Формат                                   : Matroska
Версия формата                           : Version 2
Размер файла                             : 1,53 Гбайт
Продолжительность                        : 42 м. 23 с.
Режим общего битрейта                    : Переменный
Общий поток                              : 5 178 Кбит/сек
Дата кодирования                         : UTC 2021-01-02 11:43:34
Программа кодирования                    : mkvmerge v7.8.0 ('River Man') 32bit built on Apr  3 2015 12:11:22
Библиотека кодирования                   : libebml v1.3.1 + libmatroska v1.4.2

Видео
Идентификатор                            : 1
Формат                                   : AVC
Формат/Информация                        : Advanced Video Codec
Профиль формата                          : High@L4
Настройки формата                        : CABAC / 2 Ref Frames
Параметр CABAC формата                   : Да
Параметр RefFrames формата               : 2 кадра
Параметр GOP формата                     : M=3, N=60
Идентификатор кодека                     : V_MPEG4/ISO/AVC
Продолжительность                        : 42 м. 23 с.
Вид битрейта                             : Переменный
Битрейт                                  : 4 883 Кбит/сек
Максимальный битрейт                     : 8 000 Кбит/сек
Ширина                                   : 1 920 пикселей
Высота                                   : 1 080 пикселей
Соотношение сторон                       : 16:9
Режим частоты кадров                     : Постоянный
Частота кадров                           : 25,000 кадров/сек
Цветовое пространство                    : YUV
Субдискретизация насыщенности            : 4:2:0
Битовая глубина                          : 8 бит
Тип развёртки                            : Прогрессивная
Бит/(Пиксели*Кадры)                      : 0.094
Размер потока                            : 1,45 Гбайт (94%)
Default                                  : Да
Forced                                   : Нет

Аудио
Идентификатор                            : 2
Формат                                   : AC-3
Формат/Информация                        : Audio Coding 3
Коммерческое название                    : Dolby Digital
Идентификатор кодека                     : A_AC3
Продолжительность                        : 42 м. 23 с.
Вид битрейта                             : Постоянный
Битрейт                                  : 192 Кбит/сек
Каналы                                   : 2 канала
Channel layout                           : L R
Частота                                  : 48,0 КГц
Частота кадров                           : 31,250 кадров/сек (1536 SPF)
Метод сжатия                             : С потерями
Размер потока                            : 58,2 Мбайт (4%)
Service kind                             : Complete Main
Default                                  : Да
Forced                                   : Нет



Скриншоты:
[+] Всего файлов в раздаче - 12:
E01.Odessa-Mama.mkv1.53 GB
E02.Odessa-Mama.mkv1.55 GB
E03.Odessa-Mama.mkv1.55 GB
E04.Odessa-Mama.mkv1.54 GB
E05.Odessa-Mama.mkv1.53 GB
E06.Odessa-Mama.mkv1.55 GB
E07.Odessa-Mama.mkv1.51 GB
E08.Odessa-Mama.mkv1.50 GB
E09.Odessa-Mama.mkv1.45 GB
E10.Odessa-Mama.mkv1.48 GB
E11.Odessa-Mama.mkv1.50 GB
E12.Odessa-Mama.mkv1.47 GB

Похожие раздачи по запросу - одесса:
Сегодня U Зиновий Высоковский - Говорит Одесса (2006) MP3 508.99 MB ↑ 23 ↓ 4
2019-10-21 U Одесса (2018) WEB-DLRip-AVC от Files-x | iTunes 1.46 GB ↑ 405 ↓ 20

Отзывы
Зарегистрируйтесь чтобы добавить комментарий.
Загрузите программу
  uTorrent.exe
Обратная связь
Copyleft ©