↑↓torrent.by
Поиск
Логин: Регистрация
Пароль: Восстановить пароль

История бранных слов / History of Swear Words [S01] (2021) WEB-DL 1080p | Jaskier

Скачать istoriya-brannyh-slov-history-of-swear-words-s01-2021-web-dl-1080p-jaskier.torrent
U Магнитная ссылка Размер: 4.08 GB Раздают: 36 Качают: 14 Добавлен: 2021-01-12 12:59:55
История бранных слов / History of Swear Words [S01] (2021) WEB-DL 1080p | Jaskier

Название: История бранных слов
Оригинальное название: History of Swear Words
Год выпуска: 2021
Жанр:  документальный, комедия
Режиссер: Кристофер Д Илайа
В ролях: Никки Глейсер, Лондон Хьюз, Элвис Митчелл, Кори Стэмпер, Николас Кейдж, ДеРэй Дэвис, Ник Офферман, Сара Силверман

О фильме: Этот крайне непристойный сериал посвящен самым распространенным бранным словам английского языка, их истории и влиянии на культуру. Ведущий — актер Николас Кейдж.

Страна: США
Студия: B-17 Entertainment, Funny or Die
Продолжительность: ~00:20:00 серия
Перевод: Профессиональный (многоголосый, закадровый) Jaskier

Файл
Качество: WEB-DL 1080p
Формат: Matroska
Видео: 1920x1080 at 23.976 fps, MPEG4-AVC, ~4700 kbps avg
Аудио#1: Russian: 48 kHz, AC3, 3/2 (L,C,R,l,r) + LFE ch, ~384 kbps avg |Многоголосый закадровый, Jaskier|
Аудио#2: English: 48 kHz, AC3, 3/2 (L,C,R,l,r) + LFE ch, ~384 kbps avg
Субтитры: None

***Примечание: Без рекламы
***Внимание! Присутствует ненормативная лексика!


[+] MediaInfo
Общее
Уникальный идентификатор                 : 297245824045282433871149291689981810036 (0xDF9F769D45BE34D00958A98479249574)
Полное имя                               : History.of.Swear.Words.S01E01.mkv
Формат                                   : Matroska
Версия формата                           : Version 4
Размер файла                             : 830 Мбайт
Продолжительность                        : 20 м. 54 с.
Режим общего битрейта                    : Переменный
Общий поток                              : 5 547 Кбит/сек
Дата кодирования                         : UTC 2021-01-11 16:02:41
Программа кодирования                    : mkvmerge v51.0.0 ('I Wish') 64-bit
Библиотека кодирования                   : libebml v1.4.0 + libmatroska v1.6.2

Видео
Идентификатор                            : 1
Формат                                   : AVC
Формат/Информация                        : Advanced Video Codec
Профиль формата                          : Main@L4
Настройки формата                        : CABAC / 3 Ref Frames
Параметр CABAC формата                   : Да
Параметр RefFrames формата               : 3 кадра
Идентификатор кодека                     : V_MPEG4/ISO/AVC
Продолжительность                        : 20 м. 53 с.
Вид битрейта                             : Переменный
Битрейт                                  : 4 782 Кбит/сек
Номинальный битрейт                      : 5 031 Кбит/сек
Максимальный битрейт                     : 9 285 Кбит/сек
Ширина                                   : 1 920 пикселей
Высота                                   : 1 080 пикселей
Соотношение сторон                       : 16:9
Режим частоты кадров                     : Постоянный
Частота кадров                           : 23,976 (24000/1001) кадра/сек
Цветовое пространство                    : YUV
Субдискретизация насыщенности            : 4:2:0
Битовая глубина                          : 8 бит
Тип развёртки                            : Прогрессивная
Бит/(Пиксели*Кадры)                      : 0.096
Размер потока                            : 715 Мбайт (86%)
Библиотека кодирования                   : x264 core 148 r2722 1b0121b
Настройки программы                      : cabac=1 / ref=3 / deblock=1:0:0 / analyse=0x1:0x111 / me=umh / subme=10 / psy=1 / psy_rd=1.00:0.00 / mixed_ref=1 / me_range=24 / chroma_me=1 / trellis=2 / 8x8dct=0 / cqm=0 / deadzone=21,11 / fast_pskip=1 / chroma_qp_offset=-2 / threads=8 / lookahead_threads=1 / sliced_threads=0 / nr=0 / decimate=1 / interlaced=0 / bluray_compat=0 / stitchable=1 / constrained_intra=0 / bframes=2 / b_pyramid=0 / b_adapt=2 / b_bias=0 / direct=3 / weightb=1 / open_gop=0 / weightp=2 / keyint=250 / keyint_min=23 / scenecut=0 / intra_refresh=0 / rc_lookahead=48 / rc=2pass / mbtree=1 / bitrate=5031 / ratetol=1.0 / qcomp=0.50 / qpmin=6 / qpmax=51 / qpstep=4 / cplxblur=20.0 / qblur=0.5 / vbv_maxrate=9285 / vbv_bufsize=12380 / nal_hrd=vbr / filler=0 / ip_ratio=1.40 / aq=1:1.00
Язык                                     : English
Default                                  : Да
Forced                                   : Нет

Аудио #1
Идентификатор                            : 2
Формат                                   : AC-3
Формат/Информация                        : Audio Coding 3
Коммерческое название                    : Dolby Digital
Идентификатор кодека                     : A_AC3
Продолжительность                        : 20 м. 54 с.
Вид битрейта                             : Постоянный
Битрейт                                  : 384 Кбит/сек
Каналы                                   : 6 каналов
Channel layout                           : L R C LFE Ls Rs
Частота                                  : 48,0 КГц
Частота кадров                           : 31,250 кадров/сек (1536 SPF)
Метод сжатия                             : С потерями
Размер потока                            : 57,4 Мбайт (7%)
Язык                                     : Russian
Service kind                             : Complete Main
Default                                  : Да
Forced                                   : Нет

Аудио #2
Идентификатор                            : 3
Формат                                   : AC-3
Формат/Информация                        : Audio Coding 3
Коммерческое название                    : Dolby Digital
Идентификатор кодека                     : A_AC3
Продолжительность                        : 20 м. 53 с.
Вид битрейта                             : Постоянный
Битрейт                                  : 384 Кбит/сек
Каналы                                   : 6 каналов
Channel layout                           : L R C LFE Ls Rs
Частота                                  : 48,0 КГц
Частота кадров                           : 31,250 кадров/сек (1536 SPF)
Метод сжатия                             : С потерями
Размер потока                            : 57,4 Мбайт (7%)
Язык                                     : English
Service kind                             : Complete Main
Default                                  : Нет
Forced                                   : Нет



Скриншоты:
[+] Всего файлов в раздаче - 6:
History.of.Swear.Words.S01E01.mkv829.79 MB
History.of.Swear.Words.S01E02.mkv711.24 MB
History.of.Swear.Words.S01E03.mkv674.06 MB
History.of.Swear.Words.S01E04.mkv662.89 MB
History.of.Swear.Words.S01E05.mkv634.10 MB
History.of.Swear.Words.S01E06.mkv668.49 MB

Показать еще раздачи по запросу история:
2021-01-24 U BBC: Персы: История Ирана / The Persians: A History of Iran / Art of Persia [01-03 из 03] (2020) SATRip-AVC | P2 1.94 GB ↑ 68 ↓ 34
2021-01-22 U Бог войны. История русской артиллерии [01-08 из 08] (2020) WEBRip 4.08 GB ↑ 67 ↓ 43
2021-01-12 U История бранных слов / History of Swear Words [S01] (2021) WEB-DL 720p | Jaskier 2.62 GB ↑ 23 ↓ 8
2021-01-12 U История бранных слов / History of Swear Words [S01] (2021) WEB-DLRip | Jaskier 1.57 GB ↑ 37 ↓ 13
2021-01-11 U История бранных слов / History of Swear Words [S01] (2021) WEB-DLRip | Jaskier 1.46 GB ↑ 61 ↓ 24
2021-01-01 U Рождественская история / A Christmas Carol (2009) BDRemux 1080p от KORSAR | D, A 19.60 GB ↑ 27 ↓ 7
2020-12-10 U Секретные материалы. Ищите женщину: неизвестная история Карибского кризиса (2020) SATRip 513.90 MB ↑ 32 ↓ 14

Отзывы
Зарегистрируйтесь чтобы добавить комментарий.
Загрузите программу
  uTorrent.exe
Обратная связь
Copyleft ©