↑↓torrent.by
Поиск
Логин: Регистрация
Пароль: Восстановить пароль

Просто представь, что мы знаем [01-04 из 04] (2020) WEBRip 1080p

Скачать prosto-predstav-chto-my-znaem-01-04-iz-2020-webrip-1080p.torrent
U Магнитная ссылка Размер: 5.75 GB Раздают: 35 Качают: 26 Добавлен: 2021-01-12 13:00:09
Просто представь, что мы знаем [01-04 из 04] (2020) WEBRip 1080p

Название: Просто представь, что мы знаем
Год выхода: 2020
Жанр: Драма
Режиссер: Роман Волобуев
В ролях: Евгений Стычкин, Анфиса Черных, Рина Гришина, Катя Федина, Екатерина Вилкова, Юлия Снигирь, Максим Виторган, Артур Ваха, Денис Бургазлиев, Александр Голубков, Павел Попов, Наталия Истомина, Александр Пряников, Мария Лаврова, Мария Лобанова, Ольга Сутулова, Сергей Рудзевич, Дмитрий Ендальцев, Иван Ивашкин, Илья Бледный, Сергей Галахов, Юрий Сапрыкин, Таисия Горюшева, Артём Барышников

О фильме:
Амбициозные создательницы телеграм-канала «ППЧМЗ» стремительно набирают сотни тысяч подписчиков. Для них это только начало: девушки полны идей и не собираются останавливаться. Правда, на пути к славе их поджидают скандальные разоблачения и просроченные кредиты. Помочь избавиться от финансовых проблем им предлагает крупный инвестор, чье единственное условие: принять в команду известного в прошлом журналиста старой формации — «совесть эпохи 2010-х» — Евгения Малышева. Теперь принимать решения и бороться за новых подписчиков им придётся вместе.

Страна: Россия
Студия: Продюсерская компания «Среда»
Продолжительность: 4 x ~ 00:46:00
Язык: Русский

Автор релиза:
Примечание: Без рекламы

Файл
Формат: MKV
Качество: WEBRip 1080p
Видео: MPEG-4 AVC, ~ 4800 Кбит/с, 1920x804
Аудио #01: AAC, 2 ch, 192 Кбит/с | C цензурой
Аудио #02: AAC, 2 ch, 192 Кбит/с | Внимание! Присутствует ненормативная лексика (18+)
Субтитры: Русские


[+] Содержание
1 серия — Мертвец
2 серия — Месть — это окей
3 серия — Арт-проект
4 серия — Блок на негатив



[+] MI
General
Unique ID                      : 86020182576812874981846252561384514909 (0x40B6E27184635A3D671C1DA93C0AA55D)
Complete name                  : Просто.представь.что.мы.знаем.S01.1080p.WEB-DL.AAC2.0.x264-EniaHDПросто.представь.что.мы.знаем.S01E01.1080p.WEB-DL.AAC2.0.x264-EniaHD.mkv
Format                         : Matroska
Format version                 : Version 4
File size                      : 1.67 GiB
Duration                       : 46 min 2 s
Overall bit rate               : 5 189 kb/s
Movie name                     : Просто представь, что мы знаем S01E01 - EniaHD
Encoded date                   : UTC 2020-09-25 13:34:02
Writing application            : mkvmerge v50.0.0 ('Awakenings') 64-bit
Writing library                : libebml v1.4.0 + libmatroska v1.6.2

Video
ID                             : 1
Format                         : AVC
Format/Info                    : Advanced Video Codec
Format profile                 : High@L4
Format settings                : CABAC / 5 Ref Frames
Format settings, CABAC         : Yes
Format settings, Reference fra : 5 frames
Codec ID                       : V_MPEG4/ISO/AVC
Duration                       : 46 min 2 s
Bit rate                       : 4 801 kb/s
Nominal bit rate               : 6 000 kb/s
Width                          : 1 920 pixels
Height                         : 804 pixels
Display aspect ratio           : 2.40:1
Frame rate mode                : Constant
Frame rate                     : 25.000 FPS
Color space                    : YUV
Chroma subsampling             : 4:2:0
Bit depth                      : 8 bits
Scan type                      : Progressive
Bits/(Pixel*Frame)             : 0.124
Stream size                    : 1.54 GiB (93%)
Writing library                : x264 core 157 r2969 d4099dd
Encoding settings              : cabac=1 / ref=5 / deblock=1:0:0 / analyse=0x3:0x133 / me=umh / subme=10 / psy=1 / psy_rd=1.00:0.00 / mixed_ref=1 / me_range=24 / chroma_me=1 / trellis=2 / 8x8dct=1 / cqm=0 / deadzone=21,11 / fast_pskip=1 / chroma_qp_offset=-2 / threads=25 / lookahead_threads=4 / sliced_threads=0 / nr=0 / decimate=1 / interlaced=0 / bluray_compat=0 / constrained_intra=0 / bframes=8 / b_pyramid=2 / b_adapt=2 / b_bias=0 / direct=3 / weightb=1 / open_gop=0 / weightp=2 / keyint=100 / keyint_min=10 / scenecut=40 / intra_refresh=0 / rc_lookahead=60 / rc=2pass / mbtree=1 / bitrate=6000 / ratetol=1.0 / qcomp=0.60 / qpmin=0 / qpmax=69 / qpstep=4 / cplxblur=20.0 / qblur=0.5 / vbv_maxrate=6600 / vbv_bufsize=1100 / nal_hrd=none / filler=0 / ip_ratio=1.40 / aq=1:1.00
Default                        : Yes
Forced                         : No

Audio #1
ID                             : 2
Format                         : AAC LC
Format/Info                    : Advanced Audio Codec Low Complexity
Codec ID                       : A_AAC-2
Duration                       : 46 min 2 s
Bit rate                       : 192 kb/s
Channel(s)                     : 2 channels
Channel layout                 : L R
Sampling rate                  : 48.0 kHz
Frame rate                     : 46.875 FPS (1024 SPF)
Compression mode               : Lossy
Stream size                    : 63.3 MiB (4%)
Language                       : Russian
Default                        : Yes
Forced                         : No

Audio #2
ID                             : 3
Format                         : AAC LC
Format/Info                    : Advanced Audio Codec Low Complexity
Codec ID                       : A_AAC-2
Duration                       : 46 min 2 s
Bit rate                       : 192 kb/s
Channel(s)                     : 2 channels
Channel layout                 : L R
Sampling rate                  : 48.0 kHz
Frame rate                     : 46.875 FPS (1024 SPF)
Compression mode               : Lossy
Stream size                    : 63.3 MiB (4%)
Title                          : 18+
Language                       : Russian
Default                        : No
Forced                         : No

Text
ID                             : 4
Format                         : UTF-8
Codec ID                       : S_TEXT/UTF8
Codec ID/Info                  : UTF-8 Plain Text
Duration                       : 42 min 8 s
Bit rate                       : 145 b/s
Count of elements              : 721
Stream size                    : 44.9 KiB (0%)
Language                       : Russian
Default                        : No
Forced                         : No



Скриншоты:
[+] Всего файлов в раздаче - 4:
Просто.представь.что.мы.знаем.S01E01.1080p.WEB-DL.AAC2.0.x264-EniaHD.mkv1.67 GB
Просто.представь.что.мы.знаем.S01E02.1080p.WEB-DL.AAC2.0.x264-EniaHD.mkv1.31 GB
Просто.представь.что.мы.знаем.S01E03.1080p.WEB-DL.AAC2.0.x264-EniaHD.mkv1.42 GB
Просто.представь.что.мы.знаем.S01E04.1080p.WEB-DL.AAC2.0.x264-EniaHD.mkv1.35 GB

Показать еще раздачи по запросу просто:
Сегодня U Олег Митяев - Спокойно и просто (2020) MP3 173.46 MB ↑ 29 ↓ 1
2020-09-26 U Просто представь, что мы знаем [01-04 из 04] (2020) WEBRip от Files-x 2.01 GB ↑ 179 ↓ 50
2020-07-26 U Ильзира Карагузина - Выпечка – это просто. Красивые торты, пироги и другие сладости без лишних хлопот (2020) PDF 41.61 MB ↑ 216 ↓ 2
2020-06-03 U Борис Акунин - Просто Маса (2020) MP3 892.71 MB ↑ 1199 ↓ 70
2020-05-16 U Кейт Брауэнн - Просто начни! Как самостоятельно изучить английский язык (2019) FB2, EPUB, PDF 3.39 MB ↑ 578 ↓ 0
2020-04-03 U Просто помиловать / Just Mercy (2019) BDRip 1080p от селезень | iTunes 14.29 GB ↑ 737 ↓ 98
2020-03-19 U Просто помиловать / Just Mercy (2019) WEB-DL 720p от Scarabey | D 5.21 GB ↑ 151 ↓ 41

Отзывы
Зарегистрируйтесь чтобы добавить комментарий.
Загрузите программу
  uTorrent.exe
Обратная связь
Copyleft ©